Героини зла / Аморальные женщины / Les héroïnes du mal (Валериан Боровчик / Walerian Borowczyk) [1978 г., история, притча, 18+, DVDRip] VO

 

Создавать темы 05-Сен-2016 03:37

-Героини зла / Аморальные женщины / Les héroïnes du mal-- Производство: Франция
Год выпуска: 1978 г.
Жанр: история, притча, 18+
Продолжительность: 01:54:35Мировая премьера: 7 марта 1979
Перевод: Любительский (одноголосый, закадровый)
Режиссер: Валериан Боровчик / Walerian Borowczyk-В ролях: Марина Пьерро, Гаелль Легран, Паскаль Кристоф, Жан-Клод Дрейфус, Жан Мартинелли, Пьер Бенедетти-Описание: Три аморальные женщины — три захватывающие эротические истории о не знающем границ коварстве женщин всех эпох.-
Качество видео: DVDRip
Контейнер: AVI
Видео кодек: XviD
Аудио кодек: MP3
Видео: 704x416 (1.69:1), 25 fps, XviD build 46 ~767 kbps avg, 0.10 bit/pixel
Аудио: 44.100 kHz, MPEG Layer 3, 2 ch, ~119.14 kbps avg
Cубтитры: отсутствуют

Media Info

Общее
Полное имя : E:\!Героини зла\Les heroines du mal.1978.DVDRip.[pirat.ca].avi
Формат : AVI
Формат/Информация : Audio Video Interleave
Размер файла : 737 Мбайт
Продолжительность : 1 ч. 54 м.
Режим общего битрейта : Переменный
Общий поток : 900 Кбит/сек
Программа кодирования : MEncoder Sherpya-SVN-r26446-4.2.3
Библиотека кодирования : MPlayerВидео
Идентификатор : 0
Формат : MPEG-4 Visual
Профиль формата : [email protected]/* */
Параметр BVOP формата : Нет
Параметр QPel формата : Нет
Параметр GMC формата : Без точки перехода
Параметр матрицы формата : Default (H.263)
Идентификатор кодека : XVID
Идентификатор кодека/Подсказка : XviD
Продолжительность : 1 ч. 54 м.
Битрейт : 768 Кбит/сек
Ширина : 704 пикселя
Высота : 416 пикселей
Соотношение сторон : 5:3
Частота кадров : 25,000 кадров/сек
Цветовое пространство : YUV
Субдискретизация насыщенности : 4:2:0
Битовая глубина : 8 бит
Тип развёртки : Прогрессивная
Метод сжатия : С потерями
Бит/(Пиксели*Кадры) : 0.105
Размер потока : 629 Мбайт (85%)
Библиотека кодирования : XviD 1.1.2 (UTC 2006-11-01)Аудио
Идентификатор : 1
Формат : MPEG Audio
Версия формата : Version 1
Профиль формата : Layer 3
Режим : Joint stereo
Расширение режима : MS Stereo
Идентификатор кодека : 55
Идентификатор кодека/Подсказка : MP3
Продолжительность : 1 ч. 54 м.
Вид битрейта : Переменный
Битрейт : 119 Кбит/сек
Каналы : 2 канала
Частота : 44,1 КГц
Метод сжатия : С потерями
Размер потока : 97,7 Мбайт (13%)
Выравнивание : Соединение по промежуткам
Продолжительность промежутка : 26 мс. (0,65 видеокадр)
Время предзагрузки промежутка : 539 мс.

Скриншот c названием фильма

Скриншоты

-Трейлер
Яндекс.Метрика
Рейтинг@Mail.ru