[ Сегодня на трекере фрилич! Идет свободное скачивание без начисления Download ]

(Russian Rock) Виктор Цой - Печаль (2000) - 2015 [WavPack, tracks, Lossless]

 

Создавать темы 05-Сен-2016 03:23

--Виктор Цой - Печаль (2000) - 2015--
Год издания: 2015
Страна: Russia
Жанр: Russian Rock
Продолжительность: 00:43:01-Лейбл издания: United Music Group
Страна-выпуска диска: Россия "Ультра Продакшн"
Номер по каталогу: UMG15LP-647-Формат: WavPack
Битрейт аудио: Lossless
Тип рипа: tracks
Наличие сканов в содержимом раздачи: да
-

Трэклист


01.Война(03:53)
02.Спокойная ночь(05:23)
03.В наших глазах(04:06)
04.Печаль(04:45)
05.Троллейбус(03:26)
06.Хочу перемен(04:27)
07.Последний герой(04:35)
08.Мама, мы все тяжело больны(02:59)
09.Электричка(04:25)
10.Группа крови(05:03)

Индексная карта (non-compilant .cue)

REM COMMENT  СПАМ.ORG - VINIL RIP rmb_rmb
REM GENRE Pop
REM DATE 2000 (2015)
REM Label United Music Group
REM CATALOG UMG15LP-647
PERFORMER "Виктор Цой"
TITLE "Печаль"
FILE "Виктор Цой - Печаль (2000) - 2015.wv" WAVE
TRACK 01 AUDIO
TITLE "Война"
PERFORMER "Виктор Цой"
INDEX 01 00:00:00
TRACK 02 AUDIO
TITLE "Спокойная ночь"
PERFORMER "Виктор Цой"
INDEX 01 03:53:13
TRACK 03 AUDIO
TITLE "В наших глазах"
PERFORMER "Виктор Цой"
INDEX 01 09:16:25
TRACK 04 AUDIO
TITLE "Печаль"
PERFORMER "Виктор Цой"
INDEX 01 13:22:19
TRACK 05 AUDIO
TITLE "Троллейбус"
PERFORMER "Виктор Цой"
INDEX 01 18:06:70
TRACK 06 AUDIO
TITLE "Хочу перемен"
PERFORMER "Виктор Цой"
INDEX 01 21:32:35
TRACK 07 AUDIO
TITLE "Последний герой"
PERFORMER "Виктор Цой"
INDEX 01 25:59:15
TRACK 08 AUDIO
TITLE "Мама, мы все тяжело больны"
PERFORMER "Виктор Цой"
INDEX 01 30:34:45
TRACK 09 AUDIO
TITLE "Электричка"
PERFORMER "Виктор Цой"
INDEX 01 33:34:00
TRACK 10 AUDIO
TITLE "Группа крови"
PERFORMER "Виктор Цой"
INDEX 01 37:58:42
--
Яндекс.Метрика
Рейтинг@Mail.ru