[ Сегодня на трекере фрилич! Идет свободное скачивание без начисления Download ]

Аладин / Aladin (Суджой Гхош / Sujoy Ghosh) [2009 г., фэнтези, боевик, драма, мелодрама, комедия, приключения, семейный, 12+, WEB-DLRip] MVO [СТС]

 

Создавать темы 05-Сен-2016 03:21

-Аладин / Aladin-- Производство: Индия
Год выпуска: 2009 г.
Жанр: фэнтези, боевик, драма, мелодрама, комедия, приключения, семейный, 12+
Продолжительность: 02:12:52Мировая премьера: 23 октября 2009
Перевод: Профессиональный (многоголосый, закадровый) [СТС]
Режиссер: Суджой Гхош / Sujoy Ghosh-В ролях: Шубханкар Атре, Амитабх Баччан, Виктор Банерджи, Дхавал Барбхая, Майкл Чен, Мастер Ахан Десаи, Ритеш Дешмукх, Санджай Датт, Эрина, Жаклин Фернандес, Ратна Патхак, Сахил Кхан-Описание: Аладин Чаттерджи, живущий в вымышленном городе Желание, сирота, которого с детства третирует Кассим и его банда. Но его жизнь меняется, когда Жасмин дает ему волшебную лампу — в ней живет джин по имени Гений. Джин, желая выполнить три желания и тем самым закончить «контракт» с лампой, создает Аладину трудности до тех пор, пока не появляется угроза со стороны бывшего джина по имени Инспектор манежа.-
Качество видео: WEB-DLRip
Контейнер: AVI
Видео кодек: XviD
Аудио кодек: MP3
Видео: 720x304 (2.37:1), 23.975 fps, XviD build 65 ~1427 kbps avg, 0.27 bit/pixel
Аудио: 48 kHz, MPEG Layer 3, 2 ch, ~128.00 kbps avg
Cубтитры: отсутствуют

Рецензия

«Сказка начинается тогда, когда ты этого не ждешь…».Несмотря на наличие довольно негативных рецензий на данный фильм, мне фильм понравился. Да, фильм-сказка, вольная интерпретация, явно коммерческая, сделанная для большого экрана, дабы зритель мог полюбоваться на красочные виды и спецэффекты. Ну, он так и воспринимается. Это и есть сказка, красивая, завораживающая.Фильм начинается с показа выдуманного города Желания, кстати красивого города, многоярусного, с улочками, арками, переходами, лестницами, в котором легко заблудиться и также легко найти приключения. В этом городе живет некий парень по имени Аладин. Вообще, парню невероятно «повезло» в жизни, сначала родители дают ему редкое имя Аладин, которое становится для парня сущим наказанием, с детства и в школе и в колледже его этим именем дразнят и заставляют тереть лампы (ну хоть с образованием у детей все в порядке, значит сказку о джинне читали :) Потом, родители в погоне за навязчивой идеей найти волшебную лампу, погибают. И даже когда он вырастает, жизнь его не становится лучше. Касим с его бандой также продолжают его третировать, любимую девушку из под носа уводит тот же Касим, и волшебную лампу на день рождения ему тоже дарит Касим. Ну казалось — вот оно, три желания, чего пожелаешь, то сбудется — богатство, сила, положение. Но, Аладин не спешит загадывать их. А в то же время, джинн торопит его, ведь ему через два месяца на пенсию, и если он не исполнит данные желания, то отдыха ему не видать как собственных ушей. А тут еще и Злой джинн ищет лампу, чтобы загадать свои три желания…Не знаю, у кого как, но у меня возникло ощущение, что главным героем этого фильма был не Аладин, а Джинн. Может потому, что весь акцент делался на самом Амитабхе Баччане, а может потому, что на его фоне Ритеш Дешмукх просто терялся. Но, если в начале в кадре мы видим Ритеша с потерянным видом играющего затюканного Касимом Аладина, то в то мгновение, когда в кадре появляется Джинн в костюмчике, с причесочкой, с фокусами и желанием поскорей избавиться от хозяина лампы, Ритеш уходит на второй план. Хотя надо сказать, актер неплохо справился с ролью, не раз смешил. Амитабх-джи- блистал, сверкал и растворялся в воздухе, но был на высоте. Санджай Датт / злой джинн — злодейская роль, эффектные костюм и макияж, довольно ироничный герой, и до обидного мало в кадре (по крайней мере для меня). Жаклин Фернандес/ Жасмин — ни о чем, симпатичная, видно старалась, но ничего сверхъестественного в ее роли не увидела. Да к тому же, раньше ее не видела, поэтому и сравнить ее игру в этом фильме мне просто не с чем. Сахил Кхан/ Касим — явно попал в фильм из-за внешности, видела его только в «2+2», довольно средненько, здесь тоже не показал ничего нового.Музыка — заводная, танцевальная. Джинну явно надоело сидеть в лампе и он решил поразмяться, поэтому и музыка в тон.Фильм по большей части комедия, противостояние Джинна и Аладина смешило, джинн не раз придумывал всякие нелепые ситуации, чтобы вывести Аладина из себя, хотя порой и помогал ему. И только под конец, с появлением Злого джинна, ситуация меняется. Смотреть фильм или нет — решайте сами, лично я не была разочарована, что потратила два с лишним часа на его просмотр.Оценка8 из 10

Media Info

Общее
Полное имя : J:\Аладин\Aladin.2009.WEB-DLRip.[pirat.ca].avi
Формат : AVI
Формат/Информация : Audio Video Interleave
Размер файла : 1,45 Гбайт
Продолжительность : 2 ч. 12 м.
Общий поток : 1565 Кбит/сек
Название фильма : Aladin.2009.WEB-DLRip.[pirat.ca]
Программа кодирования : VirtualDubMod 1.5.10.3 | www.virtualdub-fr.org || (build 2550/release)Видео
Идентификатор : 0
Формат : MPEG-4 Visual
Профиль формата : Advanced [email protected]/* */
Параметр BVOP формата : 1
Параметр QPel формата : Нет
Параметр GMC формата : Без точки перехода
Параметр матрицы формата : Выборочная
Идентификатор кодека : XVID
Идентификатор кодека/Подсказка : XviD
Продолжительность : 2 ч. 12 м.
Битрейт : 1428 Кбит/сек
Ширина : 720 пикселей
Высота : 304 пикселя
Соотношение сторон : 2,35:1
Частота кадров : 23,976 (23976/1000) кадра/сек
Цветовое пространство : YUV
Субдискретизация насыщенности : 4:2:0
Битовая глубина : 8 бит
Тип развёртки : Прогрессивная
Метод сжатия : С потерями
Бит/(Пиксели*Кадры) : 0.272
Размер потока : 1,33 Гбайт (91%)
Библиотека кодирования : XviD 65Аудио
Идентификатор : 1
Формат : MPEG Audio
Версия формата : Version 1
Профиль формата : Layer 3
Режим : Joint stereo
Расширение режима : MS Stereo
Идентификатор кодека : 55
Идентификатор кодека/Подсказка : MP3
Продолжительность : 2 ч. 12 м.
Вид битрейта : Постоянный
Битрейт : 128 Кбит/сек
Каналы : 2 канала
Частота : 48,0 КГц
Метод сжатия : С потерями
Размер потока : 122 Мбайт (8%)
Выравнивание : Соединение по промежуткам
Продолжительность промежутка : 42 мс. (1,00 видеокадр)
Время предзагрузки промежутка : 504 мс.

Скриншот c названием фильма

Скриншоты

-Трейлер
Яндекс.Метрика
Рейтинг@Mail.ru