[ Сегодня на трекере фрилич! Идет свободное скачивание без начисления Download ]

Добрая ведьма (ТВ) / The Good Witch (Крэйг Прайс / Craig Pryce) [2008 г., фэнтези, семейный, DVDRip] MVO

 

Создавать темы 05-Сен-2016 03:11

-Добрая ведьма (ТВ) / The Good Witch-- Производство: Канада, Whizbang Films Inc.
Год выпуска: 2008 г.
Жанр: фэнтези, семейный
Продолжительность: 01:24:33Мировая премьера: 18 января 2008
Дата выхода DVD: 28 апреля 2009, «Мьюзик-Трейд»
Перевод: Профессиональный (многоголосый, закадровый) [R5]
Режиссер: Крэйг Прайс / Craig Pryce-В ролях: Катрин Белл, Крис Поттер, Катрин Дишер, Питер МакНейл, Аллан Ройал, Мэттью Найт, Паула Бодро, Ханна Эндикот-Дуглас, Джесси Бостик, Ной Кэппи-Описание: Таинственная и очень привлекательная женщина приезжает в маленький городок, что вызывает неоднозначную реакцию среди его обитателей. Жена мэра, которая стоит во главе городского комитета, начинает компанию, по изгнанию ее из города, поводом для этого служат слухи о связях приезжей с нечистой силой…-
Качество видео: DVDRip
Контейнер: AVI
Видео кодек: XviD
Аудио кодек: AC3
Видео: 688x512 (1.34:1), 25 fps, XviD MPEG-4 ~1853 kbps avg, 0.21 bit/pixel
Аудио: 48 kHz, AC3 Dolby Digital, 3/2 (L,C,R,l,r) + LFE ch, ~448 kbps
Cубтитры: отсутствуют

Рецензия

Она ведьма, но добрая!!!Она творит чудеса и делает только добро, но жена мэра, которая потакает стандартам города, с первого взгляда начинает ненавидеть Кассандру Найтингейл, которая поселилась в сером доме. Устоев скандал она приходит в полицию и заявляет что бы её магазин «Колокол, книга и свеча» недавно открытый Кассандрой Найтингейл закрыли, однако ей не чего не удаётся! И добрая ведьма остаётся жить в городе и обретает дом и любящих её людей!Это сюжет фильма, но многие моменты я не стала писать. Я думаю, намного интереснее будет посмотреть этот фильм, чем прочитать его описание!Катрин Белл, которая сыграла Кассандру Найтингейл (добрая ведьма) вложила в свою героиню душу, и Крис Поттер постарался, но не редко за место удивления на его лице проявлялась немного другая эмоция и все, же фильм оказался на столько лёгким и незабываем, что такие мелочи не замечаешь!10 из 10 обязательно посмотрите!

Media Info

Общее
Полное имя : J:\Добрая ведьма\Dobraja vedma.2008.DVDRip.[pirat.ca].avi
Формат : AVI
Формат/Информация : Audio Video Interleave
Размер файла : 1,37 Гбайт
Продолжительность : 1 ч. 24 м.
Общий поток : 2312 Кбит/сек
Программа кодирования : VirtualDubMod 1.5.10.2 (build 2540/release)
Библиотека кодирования : VirtualDubMod build 2540/releaseВидео
Идентификатор : 0
Формат : MPEG-4 Visual
Профиль формата : Advanced [email protected]/* */
Параметр BVOP формата : 1
Параметр QPel формата : Нет
Параметр GMC формата : Без точки перехода
Параметр матрицы формата : Default (MPEG)
Режим смешивания : Сжатый битовый поток
Идентификатор кодека : XVID
Идентификатор кодека/Подсказка : XviD
Продолжительность : 1 ч. 24 м.
Битрейт : 1854 Кбит/сек
Ширина : 688 пикселей
Высота : 512 пикселей
Соотношение сторон : 4:3
Частота кадров : 25,000 кадров/сек
Цветовое пространство : YUV
Субдискретизация насыщенности : 4:2:0
Битовая глубина : 8 бит
Тип развёртки : Прогрессивная
Метод сжатия : С потерями
Бит/(Пиксели*Кадры) : 0.211
Размер потока : 1,10 Гбайт (80%)
Библиотека кодирования : XviD 1.2.0.dev47 (UTC 2006-11-01)Аудио
Идентификатор : 1
Формат : AC-3
Формат/Информация : Audio Coding 3
Расширение режима : CM (complete main)
Параметр Endianness формата : Big
Идентификатор кодека : 2000
Продолжительность : 1 ч. 24 м.
Вид битрейта : Постоянный
Битрейт : 448 Кбит/сек
Каналы : 6 каналов
Расположение каналов : Front: L C R, Side: L R, LFE
Частота : 48,0 КГц
Частота кадров : 31,250 кадров/сек (1536 spf)
Метод сжатия : С потерями
Размер потока : 271 Мбайт (19%)
Выравнивание : Разделение по промежуткам
Продолжительность промежутка : 40 мс. (1,00 видеокадр)
Время предзагрузки промежутка : 500 мс.

Скриншот c названием фильма

Скриншоты

-Трейлер
Яндекс.Метрика
Рейтинг@Mail.ru