Азуми 2: Смерть или любовь / Azumi 2: Death or Love (Сюскэ Канэко / Shusuke Kaneko) [2005 г., фэнтези, боевик, BDRip-AVC] VO

 

Создавать темы 05-Сен-2016 03:03

-Азуми 2: Смерть или любовь / Azumi 2: Death or Love-- Производство: Япония, Nippon Herald Films, Tokyo Broadcasting System (TBS), Shogakukan
Год выпуска: 2005 г.
Жанр: фэнтези, боевик
Продолжительность: 01:52:03Мировая премьера: 8 февраля 2005
Перевод: Любительский (одноголосый, закадровый)
Режиссер: Сюскэ Канэко / Shusuke Kaneko-В ролях: Ая Уето, Кеничи Эндо, Чиаки Курияма, Аи Майеда, Юджин Номура, Так Сакагучи, Шун Огури-Описание: Действие фильма разворачивается вначале периода Токугава в Японии (1603-1867).В одном из уединенных монастырей, путем жесткого отбора и специальных тренировок создавалась каста профессиональных убийц. Десять выпускников сошлись в смертельной схватке. В живых останутся лучшие. Ей предназначена миссия по предотвращению гражданской войны путем уничтожения правителей трех провинций. Но время было упущено и теперь Азуми предстоит сражение с огромной армией последнего правителя.-
Качество видео: BDRip-AVC
Контейнер: MKV
Видео кодек: MPEG4 AVC
Аудио кодек: AC3
Видео: MPEG-4 AVC, 2325 Кбит/с, 1024x552, 23,976 (24000/1001) кадра/сек
Аудио: AC3, 6 ch, 448 Кбит/с, 48,0 КГц
Cубтитры: отсутствуют

Media Info

Общее
Уникальный идентификатор : 231312717402372202414162774606460423737 (0xAE05357A3A079F778D19DCF6467F0E39)
Полное имя : F:\Азуми\Azumi-2.Smert ili Ljubov.2005.BDRip-AVC.[pirat.ca].mkv
Формат : Matroska
Версия формата : Version 2
Размер файла : 2,17 Гбайт
Продолжительность : 1 ч. 52 м.
Общий поток : 2775 Кбит/сек
Название фильма : Azumi.2.Smert.ili.Ljubov.2005.x264.BDRip
Дата кодирования : UTC 2016-09-04 14:27:24
Программа кодирования : mkvmerge v5.3.0 ('I could have danced') built on Feb 9 2012 10:38:07
Библиотека кодирования : libebml v1.2.3 + libmatroska v1.3.0Видео
Идентификатор : 1
Формат : AVC
Формат/Информация : Advanced Video Codec
Профиль формата : [email protected]/* */
Параметр CABAC формата : Да
Параметр ReFrames формата : 8 кадров
Идентификатор кодека : V_MPEG4/ISO/AVC
Продолжительность : 1 ч. 52 м.
Битрейт : 2325 Кбит/сек
Ширина : 1024 пикселя
Высота : 552 пикселя
Соотношение сторон : 1,85:1
Режим частоты кадров : Постоянный
Частота кадров : 23,976 (24000/1001) кадра/сек
Цветовое пространство : YUV
Субдискретизация насыщенности : 4:2:0
Битовая глубина : 8 бит
Тип развёртки : Прогрессивная
Бит/(Пиксели*Кадры) : 0.172
Размер потока : 1,78 Гбайт (82%)
Библиотека кодирования : x264 core 125 r2208 d9d2288
Настройки программы : cabac=1 / ref=8 / deblock=1:-2:-2 / analyse=0x3:0x133 / me=umh / subme=11 / psy=1 / psy_rd=1.00:0.00 / mixed_ref=1 / me_range=48 / chroma_me=1 / trellis=2 / 8x8dct=1 / cqm=0 / deadzone=21,11 / fast_pskip=0 / chroma_qp_offset=-2 / threads=3 / lookahead_threads=1 / sliced_threads=0 / nr=0 / decimate=0 / interlaced=0 / bluray_compat=0 / constrained_intra=0 / bframes=8 / b_pyramid=2 / b_adapt=2 / b_bias=0 / direct=3 / weightb=1 / open_gop=0 / weightp=2 / keyint=240 / keyint_min=23 / scenecut=40 / intra_refresh=0 / rc=2pass / mbtree=0 / bitrate=2325 / ratetol=1.0 / qcomp=0.60 / qpmin=10 / qpmax=51 / qpstep=4 / cplxblur=20.0 / qblur=0.5 / ip_ratio=1.40 / pb_ratio=1.30 / aq=1:1.00
Язык : Japanese
Default : Да
Forced : НетАудио
Идентификатор : 2
Формат : AC-3
Формат/Информация : Audio Coding 3
Расширение режима : CM (complete main)
Параметр Endianness формата : Big
Идентификатор кодека : A_AC3
Продолжительность : 1 ч. 52 м.
Вид битрейта : Постоянный
Битрейт : 448 Кбит/сек
Каналы : 6 каналов
Расположение каналов : Front: L C R, Side: L R, LFE
Частота : 48,0 КГц
Частота кадров : 31,250 кадров/сек (1536 spf)
Метод сжатия : С потерями
Размер потока : 359 Мбайт (16%)
Язык : Russian
Default : Да
Forced : Нет

Скриншот c названием фильма

Скриншоты

-Трейлер
Яндекс.Метрика
Рейтинг@Mail.ru