[ Сегодня на трекере фрилич! Идет свободное скачивание без начисления Download ]

Амазония / Белая рабыня / Schiave bianche - Violenza in Amazzonia (Марио Гараццио / Mario Gariazzo) [1985 г., ужасы, драма, мелодрама, приключения, 18+, DVDRip] VO

 

Создавать темы 05-Сен-2016 03:01

-Амазония / Белая рабыня / Schiave bianche - Violenza in Amazzonia-- Производство: Италия
Год выпуска: 1985 г.
Жанр: ужасы, драма, мелодрама, приключения, 18+
Продолжительность: 01:26:29Мировая премьера: 9 августа 1985
Перевод: Любительский (одноголосый, закадровый)
Режиссер: Марио Гараццио / Mario Gariazzo-В ролях: Эльвира Одре, Уилл Гонзалес, Дик Кэмпбелл, Андреа Коппола, Дик Маршалл, Альма Вернон, Грэйс Уильямс, Марк Кэннон, Джеймс Бойл-Описание: Кэтрин Майлз приехала на свой восемнадцатый день рождения к родителям в Амазонию. Во время водной прогулки ее родители были убиты, а сама она попала в руки воинов туземного племени…-
Качество видео: DVDRip
Контейнер: AVI
Видео кодек: XviD
Аудио кодек: AC3
Видео: 704x528 (1.33:1), 25 fps, XviD build 50 ~2031 kbps avg, 0.22 bit/pixel
Аудио: 48 kHz, AC3 Dolby Digital, 2/0 (L,R) ch, ~192 kbps
Cубтитры: отсутствуют

Рецензия

Белая Богиня КаннибаловАмазония является авторским спин-оффом Марио Гораццио к фильму «Ад Каннибалов» Деодато, а так же вольной интерпретацией «Белой богини каннибалов» Джесуса Франко. И этому фильму о дикарях-людоедах удалось сделать невероятное, а именно приблизиться к выше названным уникальным шедеврам жанра каннибал-муви. Всякие «Съеденные заживо», «Последним каннибальский мир», «Гора бога каннибалов» и «Зеленый ад» даже близко не сравнятся с великолепием сценария «Белой богини» Франко или со стилем и откровенностью Деодато в его «Холокосте». «Амазония», конечно, не дотягивает баллов, чтобы встать в ряд с двумя мощными картинами, но практически достигает их уровня.А главный минус и недостаток кроется именно в отсутствии заглавной элементарной фишки таких фильмов, поедания людей и человеческой плоти. Весь фильм нас будут услаждать объемом эротических сцен, радовать откровенным мясом и множеством убийств, неимоверной жестокостью и дакарей, и даже белых людей, покажут документальные завораживающие и пугающие кадры охоты леопарда на олененка, обезьяну и жуткое пожирание ящерицы муравьями. Но все это померкнет за отсутствием самых ожидаемых моментов — в фильме не едят людей, и поэтому принадлежность к «каннибал-муви» здесь очень условна.Картину можно разделить на три части. Первая — это типичное сочетание «прогулка обратилась кошмаром» с раскрытием сей тематики сполна. Вторая — пытки и ужасы жизни племени дикарей, знакомства с обычаями и ритуалами, документальный ужас отсутствие цивилизации. Третья — самый сильный контраст, невероятно украшающий фильм, тема раскрывающая жестокость белого человека в отношении дикарей и не только. Здесь после ужасов садизма диких племен, Гораццио показывает, что образованные люди индустриального мира в своей жестокости то ничем дикарям и не уступают. И именно третья часть фильма является его изюминкой, шикарной кульминацией действия, и сильным морально-нравственным и идеологическим посылом зрителю.Фильм отображает саму идею контраста насилия и сохранения человечности. Не даром в одном великом фильме человеческий вид охарактеризовали как «способный на величайшее сострадание… и невероятную жестокость!». Именно этот слоган лучше всего подошел бы к описанию происходящего на экране. Белые и дикари, племена и городская индустрия, дикость и варварство, и вопрос — кто после этого остается человеком?! Попытки главной героини выжить, приобщиться к традициям племени, и пытаться что-то изменить, не опускаясь до такого же уровня, сохранить себя и личность, не падая ниц перед суровыми законами природы. А окружающая всю историю жестокость лишь еще больше усиливает весь этот сочный контраст до апогея уровня насилия в самом финале ленты.Замечательная работа, которой нехватило основной тематики подобных фильмов — каннибализма. И тем не менее фильм удался на славу и в тематике жанра явно должен высоко цениться поклонниками подобного кино. Не лишенный смысла и значимости, и содержащий в себе столь любимые атрибуты фильма ужасов, как атмосферу, борьбу за выживание, обнаженку и море насилия. Практически совершенное кино о дикарях и человечности.8 из 10

Media Info

Общее
Полное имя : F:\Амазония\Amazzonia.1985.DVDRip.[pirat.ca].avi
Формат : AVI
Формат/Информация : Audio Video Interleave
Размер файла : 1,35 Гбайт
Продолжительность : 1 ч. 26 м.
Общий поток : 2233 Кбит/сек
Программа кодирования : VirtualDubMod 1.5.10.3 (build 2550/release)
Библиотека кодирования : VirtualDubMod build 2550/releaseВидео
Идентификатор : 0
Формат : MPEG-4 Visual
Профиль формата : Advanced [email protected]/* */
Параметр BVOP формата : 1
Параметр QPel формата : Нет
Параметр GMC формата : Без точки перехода
Параметр матрицы формата : Выборочная
Идентификатор кодека : XVID
Идентификатор кодека/Подсказка : XviD
Продолжительность : 1 ч. 26 м.
Битрейт : 2031 Кбит/сек
Ширина : 704 пикселя
Высота : 528 пикселей
Соотношение сторон : 4:3
Частота кадров : 25,000 кадров/сек
Цветовое пространство : YUV
Субдискретизация насыщенности : 4:2:0
Битовая глубина : 8 бит
Тип развёртки : Прогрессивная
Метод сжатия : С потерями
Бит/(Пиксели*Кадры) : 0.219
Размер потока : 1,23 Гбайт (91%)
Библиотека кодирования : XviD 1.2.1 (UTC 2008-12-04)Аудио
Идентификатор : 1
Формат : AC-3
Формат/Информация : Audio Coding 3
Расширение режима : CM (complete main)
Параметр Endianness формата : Big
Идентификатор кодека : 2000
Продолжительность : 1 ч. 26 м.
Вид битрейта : Постоянный
Битрейт : 192 Кбит/сек
Каналы : 2 канала
Расположение каналов : Front: L R
Частота : 48,0 КГц
Частота кадров : 31,250 кадров/сек (1536 spf)
Метод сжатия : С потерями
Размер потока : 119 Мбайт (9%)
Выравнивание : Разделение по промежуткам
Продолжительность промежутка : 40 мс. (1,00 видеокадр)
Время предзагрузки промежутка : 500 мс.
Язык : Russian

Скриншот c названием фильма

Скриншоты

-Трейлер
Яндекс.Метрика
Рейтинг@Mail.ru