[ Сегодня на трекере фрилич! Идет свободное скачивание без начисления Download ]

Преступник / Criminal (Ариэль Вромен / Ariel Vromen) [2016, Фантастика, Боевик, Триллер, Криминал, BDRip, 1080p-LQ]

 

Создавать темы 03-Сен-2016 19:24

Преступник / Criminal-- Год: 2016
Производство: Великобритания, США
Жанр: Фантастика, Боевик, Триллер, Криминал
Режиссер: Ариэль Вромен
Актеры: Кевин Костнер, Гари Олдман, Томми Ли Джонс, Райан Рейнольдс, Элис Ив, Галь Гадот, Хорди Молья, Майкл Питт, Амори Ноласко, Антье Трауэ
Описание:
В последней отчаянной попытке остановить катастрофу мирового масштаба генетики осуществляют невероятную операцию по вживлению воспоминаний и умений погибшего оперативника ЦРУ в тело опасного заключенного с надеждой, что тот доведет до конца прерванную миссию агента.

Возраст: 18+ (зрителям, достигшим 18 лет. запрещено для детей)
Рейтинг MPAA: R (лицам до 17 лет обязательно присутствие взрослого)
Дата мировой премьеры: 7 апреля 2016
Дата российской премьеры: 14 апреля 2016
Продолжительность: 01:53:34
Качество видео: BDRip SAMPLE
Перевод: Дублированный (iTunes)
Видео: AVC/H.264, 1920x804 (2.40:1), ~4083 Kbps
Аудио: AC3, 6 ch, 384 Kbps

МИ

General
    Unique ID : 223624413011332036791828822729869664515 (0xA83C7ECE0ACCE2E49C2A17D33422A103)
    Complete name : J:\Сборка\Преступник. - Criminal.2016.1080p.BluRay.AС3.x264.mkv
    Format : Matroska
    Format version : Version 4 / Version 2
    File size : 3.62 GiB
    Duration : 1h 53mn
    Overall bit rate : 4 557 Kbps
    Encoded date : UTC 2016-09-01 15:37:07
    Writing application : mkvmerge v7.3.0 ('Nouages') 32bit built on Oct 22 2014 18:44:01
    Writing library : libebml v1.3.0 + libmatroska v1.4.1
    DURATION : 01:53:34.432000000
    NUMBER_OF_FRAMES : 212951
    NUMBER_OF_BYTES : 327092736
    _STATISTICS_WRITING_APP : mkvmerge v7.3.0 ('Nouages') 32bit built on Oct 22 2014 18:44:01
    _STATISTICS_WRITING_DATE_UTC : 2016-09-01 15:37:07
    _STATISTICS_TAGS : BPS DURATION NUMBER_OF_FRAMES NUMBER_OF_BYTES
  Video #1
    ID : 1
    Format : AVC
    Format/Info : Advanced Video Codec
    Format profile : [email protected]
    Format settings, CABAC : Yes
    Format settings, ReFrames : 4 frames
    Codec ID : V_MPEG4/ISO/AVC
    Duration : 1h 53mn
    Bit rate : 4 083 Kbps
    Width : 1 920 pixels
    Height : 804 pixels
    Display aspect ratio : 2.40:1
    Frame rate mode : Constant
    Frame rate : 23.976 fps
    Color space : YUV
    Chroma subsampling : 4:2:0
    Bit depth : 8 bits
    Scan type : Progressive
    Bits/(Pixel*Frame) : 0.110
    Stream size : 3.24 GiB (90%)
    Writing library : x264 core 148 r2665 a01e339
    Encoding settings : cabac=1 / ref=4 / deblock=1:-1:-1 / analyse=0x3:0x113 / me=tesa / subme=11 / psy=1 / psy_rd=1.00:0.00 / mixed_ref=1 / me_range=32 / chroma_me=1 / trellis=2 / 8x8dct=1 / cqm=0 / deadzone=21,11 / fast_pskip=0 / chroma_qp_offset=-2 / threads=12 / lookahead_threads=1 / sliced_threads=0 / nr=0 / decimate=1 / interlaced=0 / bluray_compat=0 / constrained_intra=0 / bframes=4 / b_pyramid=2 / b_adapt=2 / b_bias=0 / direct=1 / weightb=1 / open_gop=0 / weightp=2 / keyint=240 / keyint_min=24 / scenecut=40 / intra_refresh=0 / rc_lookahead=100 / rc=crf / mbtree=1 / crf=20.5 / qcomp=0.60 / qpmin=0 / qpmax=69 / qpstep=4 / vbv_maxrate=62500 / vbv_bufsize=62500 / crf_max=0.0 / nal_hrd=none / filler=0 / ip_ratio=1.40 / aq=2:0.80 / zones=151000,163300,b=1,crf=28
    Default : Yes
    Forced : No
  Audio #2
    ID : 2
    Format : AC-3
    Format/Info : Audio Coding 3
    Mode extension : CM (complete main)
    Format settings, Endianness : Big
    Codec ID : A_AC3
    Duration : 1h 53mn
    Bit rate mode : Constant
    Bit rate : 384 Kbps
    Channel(s) : 6 channels
    Channel positions : Front: L C R, Side: L R, LFE
    Sampling rate : 48.0 KHz
    Bit depth : 16 bits
    Compression mode : Lossy
    Stream size : 312 MiB (8%)
    Language : Russian
    Default : Yes
    Forced : No
Скриншоты:
Яндекс.Метрика
Рейтинг@Mail.ru