Деньги. Sex. Радикулит (Никита Снегов) [03.09.2016, Юмор, комедийное шоу, SATRip]

 

Создавать темы 03-Сен-2016 17:25

Деньги. Sex. Радикулит--- Телекомпания: ЗАО "ТВ ДАРЬЯЛ", Телеканал Че
Жанр: Юмор, комедийное шоу
Режиссер: Никита Снегов
Ведущий: Сергей Ершов
Описание:
В комедийном шоу «Деньги. Sex. Радикулит» на телеканале «Че» не будет места стереотипам, неловкостям, «розовым пони» и прочим глупостям. Только суровый юмор, только смелые и точные шутки! Ведущие шоу не психологи – они просто отличные парни с большим опытом за плечами. Они знают: какие бы проблемы не наваливались на тебя со всех сторон, о них всегда можно честно поговорить и посмеяться.

Продолжительность: 00:42:52
Качество видео: SATRip
Видео: Xvid, 720x400, ~1800 Кбит/сек
Аудио: MP3, 2 ch, 192 Кбит/сек

МИ

Общее
Полное имя                               : F:\видео\фильмы\Деньги. Sex. Радикулит\Деньги. Sex. Радикулит.2016.09.03.avi
Формат                                   : AVI
Формат/Информация                        : Audio Video Interleave
Размер файла                             : 613 Мбайт
Продолжительность                        : 42 м. 50 с.
Общий поток                              : 2002 Кбит/сек
Программа кодирования                    : VirtualDubMod 1.5.10.3 | www.virtualdub-fr.org || (build 2550/release)
Библиотека кодирования                   : VirtualDubMod build 2550/release
Видео
Идентификатор                            : 0
Формат                                   : MPEG-4 Visual
Профиль формата                          : Advanced [email protected]
Параметр BVOP формата                    : 2
Параметр QPel формата                    : Нет
Параметр GMC формата                     : Без точки перехода
Параметр матрицы формата                 : Default (H.263)
Идентификатор кодека                     : XVID
Идентификатор кодека/Подсказка           : XviD
Продолжительность                        : 42 м. 50 с.
Битрейт                                  : 1800 Кбит/сек
Ширина                                   : 720 пикселей
Высота                                   : 400 пикселей
Соотношение сторон                       : 16:9
Частота кадров                           : 25,000 кадров/сек
Цветовое пространство                    : YUV
Субдискретизация насыщенности            : 4:2:0
Битовая глубина                          : 8 бит
Тип развёртки                            : Прогрессивная
Метод сжатия                             : С потерями
Бит/(Пиксели*Кадры)                      : 0.250
Размер потока                            : 552 Мбайт (90%)
Библиотека кодирования                   : XviD 1.2.1 (UTC 2008-12-04)
Аудио
Идентификатор                            : 1
Формат                                   : MPEG Audio
Версия формата                           : Version 1
Профиль формата                          : Layer 3
Режим                                    : Joint stereo
Идентификатор кодека                     : 55
Идентификатор кодека/Подсказка           : MP3
Продолжительность                        : 42 м. 50 с.
Вид битрейта                             : Постоянный
Битрейт                                  : 192 Кбит/сек
Каналы                                   : 2 канала
Частота                                  : 48,0 КГц
Метод сжатия                             : С потерями
Размер потока                            : 58,8 Мбайт (10%)
Выравнивание                             : Соединение по промежуткам
Продолжительность промежутка             : 40  мс. (1,00 видеокадр)
Время предзагрузки промежутка            : 504  мс.
Библиотека кодирования                   : LAME3.99r
Настройки программы                      : -m j -V 4 -q 9 -lowpass 18.6 -b 192
Скриншоты:
Яндекс.Метрика
Рейтинг@Mail.ru