Заклятие 2 / The Conjuring 2 (Джеймс Ван / James Wan) [2016 г., ужасы, триллер, детектив, BDRip, 720p] Dub [МОСФИЛЬМ-мастер 2016]

 

Создавать темы 03-Сен-2016 05:58

-Заклятие 2 / The Conjuring 2-- Производство: США, Atomic Monster, Evergreen Media, New Line Cinema, ...
Год выпуска: 2016 г.
Жанр: ужасы, триллер, детектив
Продолжительность: 02:13:52Мировая премьера: 13 мая 2016
Российская премьера: 16 июня 2016, «Каро-Премьер»
Перевод: Профессиональный (полное дублирование) [МОСФИЛЬМ-мастер 2016]
Режиссер: Джеймс Ван / James Wan-В ролях: Патрик Уилсон, Вера Фармига, Мэдисон Вульф, Фрэнсис О’Коннор, Лорен Эспозито, Бенжамин Хэй, Патрик МакОли, Саймон МакБерни, Мария Дойл Кеннеди, Саймон Делани-Описание: Фильм основан на случае, с которым столкнулись практикующие исследователи паранормальных явлений Эд и Лоррэйн Уоррены. На этот раз вызов будет из северного пригорода Лондона, где семья, состоящая из четырех детей и матери-одиночки, подвергается нападениям потусторонних сил. Супругам предстоит выяснить, какова природа этих явлений, полтергейст ли это, или что-то другое, и главное — почему именно этот дом и именно эта семья.-
Качество видео: BDRip
Контейнер: MKV
Стандарт разрешения: 720p
Видео кодек: AVC/H.264
Аудио кодек: AC3
Видео: 1280х534, 6430, 23,976 (24000/1001)
Аудио: 384, 6, 48,0
Cубтитры: отсутствуют

Доп. информация

В доме Уорренов есть ссылки на другие фильмы о паранормальных явлениях. На картине в кабинете Эдварда изображён дом, в котором происходят события фильма Джеймса Вана «Заклятие» (2013). В коллекции супругов-исследователей есть кукла из фильма Джона Р. Леонетти «Проклятие Аннабель» (2014, спин-офф фильма «Заклятие») и музыкальная шкатулка из фильма «Заклятие».
В начальной сцене фильма, где Уоррены участвуют в спиритическом сеансе в Амитивилле, Лоррейн одета в плащ и брюки. Именно так настоящая Лоррейн Уоррен была одета, когда они с мужем проводили амитивилльское расследование в 1976 году. Художник по костюмам нашёл для исполнившей роль Лоррейн актрисы точную копию плаща героини.
В доме Уорренов можно 6 раз увидеть имя демона «Валак». Сначала в сцене за столом, где Лоррейн впервые видит картину Эдварда — слово «Валак» видно на вывешенных в окне предметах и позади Лоррейн (английское «V» выделяется в слове «love», а остальные буквы стилизованны под деревянные). Затем, когда дочь делает браслеты, и на каждом из трёх написано слово «Валак». И в последний раз — когда Лоррейн спит, пока дочь играет, слово «Валак» высвечивается на книжной полке.
Сцена, в которой персонаж Фрэнсис О`Коннор просыпается от криков детей, а в комнате начинают выдвигаться и захлопываться ящики, была снята с одного дубля.
Появившийся в начальной сцене фильма демон в обличье монашки не имеет ничего общего с расследованием в Амитивилле. Как рассказал режиссёр Джеймс Ван: «Это у Лоррейн предчувствие того, что ждёт их в Лондоне».
Все сцены с демоном в обличье монашки были добавлены после окончания основных съёмок. Режиссёру Джеймсу Вану хотелось развить сюжетную линию сомнений, обуревающих Лоррейн Уоррен. Именно поэтому он решил придать демонической сущности облик монашки.
В сцене, где мимо Лоррейн с дочерью проходит демон в облике монашки, можно различить буквы «В», «А», «Л», «А» и «К». Из них составляется имя демона «Валак», которое необходимо знать, чтобы его победить.

Рецензия

С каждым разом все больше и больше удивляюсь тому с какой легкостью Джеймс Ван заставляет своего зрителя поверить ему. Мое знакомство с этим творческим гением началось еще с далекой «Пилы», а затем я сходила на фильм «Астрал», после которого поняла, что больше не смогу смотреть фильмы ужасов или триллеры без особого «изюма», который есть только у Вана. Человек с такой легкостью говорит нам о том, чтобы мы боялись, тряслись только при упоминании его фильмов. Благодаря этому, все картины этого режиссера выходят 100%! Такие, какими мы их ждем.Джеймс Ван не даед нам передохнуть, каждый кадр приносит что-то новое. Когда я сидела в кинотеатре, то впервые мне стало жутко от того, что я увидела в этой картине. Я чувствовала, как вся та тьма, которую собрали в один кадр прокрадывается в мой мозг и заставляет поверить, а еще и увидеть то, что изображено на экране. С каждым движением камер, я замирала и ждала, когда что-то очередное появится. Такие же дела обстоят и со звуком. Звуковые моменты были на высоте: от дыхания героев, то скрипа половиц.Вторая причина по которой я пошла на этот фильм, это все тот же мой любимый оператор Дон Берджес, который показал и рассказал нам историю одной семьи и дома. История, которая стала началом появления потустороннего существа. История, которая заставила увидеть и услышать то, что другим даже и не снилось. Также есть пункт, составляющий вторую причину — это Джозеф Бишар! Боже мой! Этот человек, который заставил меня содрогаться от «дьявольской скрипки» в «Астрале», а также в «Заклятии». Теперь я очень аккуратно слушаю струнные инструменты. А про хор девушек или женщин, который иногда появлялся в фильме, я вообще молчу.Третья причина: несравненные Патрик Уилсон и Вера Фармига. Тут и говорить нечего. Все было сделано на высшем уровне. Спасибо большое. Спасибо.«Заклятие 2» — тот фильм, который полностью перенесет Вас в другую реальность и заставит поверить в существование демона или какого-нибудь духа. После фильма, Вам будут мерещиться образы и Вы будете бояться. Бояться неизвестности.10 из 10

Media Info

Общее
Уникальный идентификатор : 228778975514875057796353788278374701140 (0xAC1D3A5B85F07865944F108879C89854)
Полное имя : F:\Заклятие 2\The Conjuring.2.2016.BDRip-AVC.720p.[pirat.ca].mkv
Формат : Matroska
Версия формата : Version 2
Размер файла : 6,50 Гбайт
Продолжительность : 2 ч. 13 м.
Общий поток : 6952 Кбит/сек
Дата кодирования : UTC 2016-08-31 09:51:33
Программа кодирования : mkvmerge v5.3.0 ('I could have danced') built on Feb 9 2012 10:38:07
Библиотека кодирования : libebml v1.2.3 + libmatroska v1.3.0Видео
Идентификатор : 1
Формат : AVC
Формат/Информация : Advanced Video Codec
Профиль формата : [email protected]/* */
Параметр CABAC формата : Да
Параметр ReFrames формата : 12 кадров
Идентификатор кодека : V_MPEG4/ISO/AVC
Продолжительность : 2 ч. 13 м.
Битрейт : 6430 Кбит/сек
Ширина : 1280 пикселей
Высота : 534 пикселя
Соотношение сторон : 2,40:1
Режим частоты кадров : Постоянный
Частота кадров : 23,976 (24000/1001) кадра/сек
Цветовое пространство : YUV
Субдискретизация насыщенности : 4:2:0
Битовая глубина : 8 бит
Тип развёртки : Прогрессивная
Бит/(Пиксели*Кадры) : 0.392
Размер потока : 6,01 Гбайт (92%)
Библиотека кодирования : x264 core 148 r2705kMod 3f5ed56
Настройки программы : cabac=1 / ref=12 / deblock=1:-3:-3 / analyse=0x3:0x133 / me=umh / subme=10 / psy=1 / fade_compensate=0.00 / psy_rd=1.15:0.00 / mixed_ref=1 / me_range=24 / chroma_me=1 / trellis=2 / 8x8dct=1 / cqm=0 / deadzone=21,11 / fast_pskip=0 / chroma_qp_offset=-2 / threads=17 / lookahead_threads=2 / sliced_threads=0 / nr=0 / decimate=0 / interlaced=0 / bluray_compat=0 / constrained_intra=0 / fgo=0 / bframes=9 / b_pyramid=2 / b_adapt=2 / b_bias=0 / direct=3 / weightb=1 / open_gop=0 / weightp=2 / keyint=250 / keyint_min=23 / scenecut=40 / intra_refresh=0 / rc_lookahead=60 / rc=crf / mbtree=0 / crf=16.5000 / qcomp=0.60 / qpmin=0 / qpmax=69 / qpstep=4 / vbv_maxrate=62500 / vbv_bufsize=78125 / crf_max=0.0 / nal_hrd=none / filler=0 / ip_ratio=1.30 / pb_ratio=1.20 / aq=3:0.75
Язык : English
Default : Да
Forced : Нет
Цветовой диапазон : Limited
Коэффициенты матрицы : BT.709
Statistics Tags Issue : mkvmerge v8.3.0 ('Over the Horizon') 64bit 2016-08-30 20:17:32 / mkvmerge v5.3.0 ('I could have danced') built on Feb 9 2012 10:38:07 2016-08-31 09:51:33
FromStats_BitRate : 6566429
FromStats_Duration : 02:13:52.733000000
FromStats_FrameCount : 192593
FromStats_StreamSize : 6593296680Аудио
Идентификатор : 2
Формат : AC-3
Формат/Информация : Audio Coding 3
Расширение режима : CM (complete main)
Параметр Endianness формата : Big
Идентификатор кодека : A_AC3
Продолжительность : 2 ч. 13 м.
Вид битрейта : Постоянный
Битрейт : 384 Кбит/сек
Каналы : 6 каналов
Расположение каналов : Front: L C R, Side: L R, LFE
Частота : 48,0 КГц
Частота кадров : 31,250 кадров/сек (1536 spf)
Метод сжатия : С потерями
Задержка видео : 928 мс.
Размер потока : 368 Мбайт (6%)
Заголовок : DUB.МОСФИЛЬМ-мастер 2016 по заказу Кар-Премьер
Язык : Russian
Default : Да
Forced : Нет
Statistics Tags Issue : mkvmerge v8.3.0 ('Over the Horizon') 64bit 2016-08-30 20:17:32 / mkvmerge v5.3.0 ('I could have danced') built on Feb 9 2012 10:38:07 2016-08-31 09:51:33
FromStats_BitRate : 384000
FromStats_Duration : 02:13:50.688000000
FromStats_FrameCount : 250959
FromStats_StreamSize : 385473024Меню
00:00:00.000 : en:00:00:00.000
00:08:24.671 : en:00:08:24.671
00:18:40.703 : en:00:18:40.703
00:28:34.212 : en:00:28:34.212
00:40:01.399 : en:00:40:01.399
00:48:46.841 : en:00:48:46.841
01:02:14.314 : en:01:02:14.314
01:09:29.665 : en:01:09:29.665
01:21:55.869 : en:01:21:55.869
01:29:26.486 : en:01:29:26.486
01:38:53.469 : en:01:38:53.469
01:48:15.364 : en:01:48:15.364
02:03:10.508 : en:02:03:10.508
02:07:36.816 : en:02:07:36.816

Скриншот c названием фильма

Скриншоты

-Трейлер
Яндекс.Метрика
Рейтинг@Mail.ru