[ Сегодня на трекере фрилич! Идет свободное скачивание без начисления Download ]

Пластик / Plastic (Джулиан Джилби / Julian Gilbey) [2014 г., боевик, драма, комедия, криминал, BDRip-AVC] Dub [МОСФИЛЬМ-мастер 2014]

 

Создавать темы 03-Сен-2016 05:55

-Пластик / Plastic-- Производство: Великобритания, Gateway Films
Год выпуска: 2014 г.
Жанр: боевик, драма, комедия, криминал
Продолжительность: 01:41:42Мировая премьера: 30 апреля 2014
Российская премьера: 19 июня 2014, «Люксор»
Дата выхода DVD: 24 июля 2014, «CD Land»
Перевод: Профессиональный (полное дублирование) [МОСФИЛЬМ-мастер 2014]
Режиссер: Джулиан Джилби / Julian Gilbey-В ролях: Эдвард Спелирс, Уилл Поултер, Элфи Оуэн-Аллен, Себастьян Де Соуза, Эмма Ригби, Томас Кречман, Грэм МакТавиш, Малез Джоу, Терри Стоун, Эшли Чин-Описание: Фильм основан на реальной истории. Банде друзей удалось проникнуть в одну из самых больших в мире компаний, которая работает с кредитными картами. Им удается провернуть одну из самых дерзких краж в британской истории.-
Качество видео: BDRip-AVC
Контейнер: MKV
Видео кодек: MPEG4 AVC
Аудио кодек: AC3
Видео: 1048x440 (2,40:1), 24,000 fps, 2176 kbps, 0.197 bit/pixel
Аудио: 48 kHz, AC3 Dolby Digital, 3/2 (L,C,R,l,r) + LFE ch, 448.00 kbps
Cубтитры: отсутствуют

Рецензия

В ногу со временем идете, мошенникиБольшинство всех современных денежных транзакций, в особенности на крупную сумму, происходит в безналичном виде. Даже зарплаты сейчас начисляются на банковские карты, откуда достаточно большое количество людей их и вовсе не снимает — везде используют маленький кусочек пластика для расчета. Удобно? Безусловно! Вот только теперь не нужно утаскивать целый чемодан, полный наличных (или даже кошелек) — достаточно будет умыкнуть карточку и раздобыть где-нибудь парочку заветных циферок, открывающих доступ ко всем богатствам. Мошенников таких хватает. Именно о них и пойдет речь в фильме.Робингуды начала XXI века. Такую характеристику хочется дать молодым парням. Они не звери — не снимают последние копейки у всех подряд (к тому же затраты в данном случае себя не оправдают), отлавливают только наиболее откормленных рыбешек, не заметить которых в финансовой «воде» — трудно. Живут они хорошо, «бизнес» по-тихоньку набирает обороты, до той поры пока по глупости герои не сталкиваются с очень опасным человеком. Ставки моментально взлетают до небес. Необходимо найти целых 2 млн.$ за пару недель, иначе приятелям банально не жить.Несмотря на общую стандартность сюжета и четкую стереотипичность главных персонажей, наблюдать за происходящим на экране — интересно. Не происходит никаких неожиданных поворотов, нет места шокирующим откровениям, сказывается нехватка остроумных диалогов, и все равно зрителя и без этого неплохо кормят динамичными событиями. А чего еще надо от добротного экшена?Пластик — кино далеко невыдающееся. Впрочем, расслабиться вечерком под него можно. Причём почти в любой кампании.8 из 10

Media Info

Общее
Уникальный идентификатор : 205058451065438177418085599070524090843 (0x9A44D2354A8C33B991AAE4D80B9929DB)
Полное имя : C:\герои 7\Пластик\Plastik.2014.BDRip-AVC.[pirat.ca].mkv
Формат : Matroska
Версия формата : Version 2
Размер файла : 1,86 Гбайт
Продолжительность : 1 ч. 41 м.
Общий поток : 2625 Кбит/сек
Дата кодирования : UTC 2016-09-02 10:37:48
Программа кодирования : mkvmerge v5.3.0 ('I could have danced') built on Feb 9 2012 10:38:07
Библиотека кодирования : libebml v1.2.3 + libmatroska v1.3.0Видео
Идентификатор : 1
Формат : AVC
Формат/Информация : Advanced Video Codec
Профиль формата : [email protected]/* */
Параметр CABAC формата : Да
Параметр ReFrames формата : 9 кадров
Идентификатор кодека : V_MPEG4/ISO/AVC
Продолжительность : 1 ч. 41 м.
Битрейт : 2176 Кбит/сек
Ширина : 1048 пикселей
Высота : 440 пикселей
Соотношение сторон : 2,40:1
Режим частоты кадров : Постоянный
Частота кадров : 24,000 кадра/сек
Цветовое пространство : YUV
Субдискретизация насыщенности : 4:2:0
Битовая глубина : 8 бит
Тип развёртки : Прогрессивная
Бит/(Пиксели*Кадры) : 0.197
Размер потока : 1,51 Гбайт (81%)
Библиотека кодирования : x264 core 128 r2216M 198a7ea
Настройки программы : cabac=1 / ref=10 / deblock=1:-2:-1 / analyse=0x3:0x133 / me=umh / subme=11 / psy=1 / psy_rd=1.07:0.02 / mixed_ref=1 / me_range=48 / chroma_me=1 / trellis=2 / 8x8dct=1 / cqm=0 / deadzone=21,11 / fast_pskip=0 / chroma_qp_offset=-3 / threads=6 / lookahead_threads=1 / sliced_threads=0 / nr=0 / decimate=0 / interlaced=0 / bluray_compat=0 / constrained_intra=0 / bframes=11 / b_pyramid=1 / b_adapt=2 / b_bias=0 / direct=3 / weightb=1 / open_gop=0 / weightp=2 / keyint=250 / keyint_min=22 / scenecut=40 / intra_refresh=0 / rc_lookahead=120 / rc=2pass / mbtree=0 / bitrate=2176 / ratetol=1.0 / qcomp=0.70 / qpmin=0 / qpmax=69 / qpstep=4 / cplxblur=20.0 / qblur=0.5 / vbv_maxrate=50000 / vbv_bufsize=62500 / nal_hrd=none / ip_ratio=1.35 / pb_ratio=1.25 / aq=1:0.75
Язык : English
Default : Да
Forced : НетАудио
Идентификатор : 2
Формат : AC-3
Формат/Информация : Audio Coding 3
Расширение режима : CM (complete main)
Параметр Endianness формата : Big
Идентификатор кодека : A_AC3
Продолжительность : 1 ч. 41 м.
Вид битрейта : Постоянный
Битрейт : 448 Кбит/сек
Каналы : 6 каналов
Расположение каналов : Front: L C R, Side: L R, LFE
Частота : 48,0 КГц
Частота кадров : 31,250 кадров/сек (1536 spf)
Метод сжатия : С потерями
Размер потока : 326 Мбайт (17%)
Заголовок : Dub | DD 5.1 @ 448 kbps - R5
Язык : Russian
Default : Да
Forced : НетМеню
00:00:00.000 : en:(01)00:00:00:000
00:05:00.000 : en:(02)00:05:00:000
00:10:00.000 : en:(03)00:10:00:000
00:15:00.000 : en:(04)00:15:00:000
00:20:00.000 : en:(05)00:20:00:000
00:25:00.000 : en:(06)00:25:00:000
00:30:00.000 : en:(07)00:30:00:000
00:35:00.000 : en:(08)00:35:00:000
00:40:00.000 : en:(09)00:40:00:000
00:45:00.000 : en:(10)00:45:00:000
00:50:00.000 : en:(11)00:50:00:000
00:55:00.000 : en:(12)00:55:00:000
01:00:00.000 : en:(13)01:00:00:000
01:05:00.000 : en:(14)01:05:00:000
01:10:00.000 : en:(15)01:10:00:000
01:15:00.000 : en:(16)01:15:00:000
01:20:00.000 : en:(17)01:20:00:000
01:25:00.000 : en:(18)01:25:00:000
01:30:00.000 : en:(19)01:30:00:000
01:35:00.000 : en:(20)01:35:00:000
01:40:00.000 : en:(21)01:40:00:000

Скриншот c названием фильма

Скриншоты

-Трейлер
Яндекс.Метрика
Рейтинг@Mail.ru