Дочь д`Артаньяна / La fille de d'Artagnan (Бертран Тавернье / Bertrand Tavernier) [1994 г., боевик, комедия, приключения, DVDRip] MVO [R5]

 

Создавать темы 03-Сен-2016 05:49

-Дочь д`Артаньяна / La fille de d'Artagnan-- Производство: Франция
Год выпуска: 1994 г.
Жанр: боевик, комедия, приключения
Продолжительность: 02:04:54Мировая премьера: 24 августа 1994
Перевод: Профессиональный (многоголосый, закадровый) [R5]
Режиссер: Бертран Тавернье / Bertrand Tavernier-В ролях: Софи Марсо, Филипп Нуаре, Клод Риш, Сами Фрей, Жан-Люк Бидо, Рауль Бийре, Шарлотта Кэди, Нильс Тавернье, Луиджи Пройетти, Жан-Пол Рассиллон-Описание: Прославленный герой уготовил своей дочери Элоизе роль послушницы в монастыре. Но отважная девушка смело бросается в бой с врагами, убившими на её глазах мать-настоятельницу. Ей приходится не только мастерски фехтовать, но и распутывать коварные интриги. И, конечно, она влюбляется в благородного красавца.-
Качество видео: DVDRip
Контейнер: AVI
Видео кодек: XviD
Аудио кодек: AC3
Видео: 720x400 (1.80:1), 25 fps, XviD build 64 ~1745 kbps avg, 0.24 bit/pixel
Аудио: 48 kHz, AC3 Dolby Digital, 3/2 (L,C,R,l,r) + LFE ch, ~384 kbps
Cубтитры: отсутствуют

Рецензия

Однажды раб сбегает из имения герцога Крассака (Клод Риш) и ищет убежища в женском монастыре, где с детства живёт Элоиз (Софи Марсо) — дочь известного мушкетёра д`Артаньяна (Филипп Нуаре). Однако попытка защитить беглеца заканчивается тем, что убивают настоятельницу девушки. Элоиз также находит бумагу со списком белья и решает, что это зашифрованное послание — заговор. Она отправляется к своему отцу, в Париж, за помощью.Приятное, лёгкое кино. В основном, весь юмор построен на особом таланте главной героини — попадать в неловкие ситуации. Также невозможно со спокойным, умиротворённым лицом наблюдать за нелепым фехтованием Элоиз. Но благодаря блистательной Софи Марсо подобное обращение со шпагой вызывает только умиление. Думаю, это и задумывалось создателями.7 из 10

Media Info

Общее
Полное имя : J:\Дочь Д`Артаньяна\Doch Dartanjana.1994.DVDRip.[pirat.ca].avi
Формат : AVI
Формат/Информация : Audio Video Interleave
Размер файла : 1,87 Гбайт
Продолжительность : 2 ч. 4 м.
Общий поток : 2140 Кбит/сек
Программа кодирования : VirtualDubMod 1.5.10.3 (build 2550/release)Видео
Идентификатор : 0
Формат : MPEG-4 Visual
Профиль формата : Advanced [email protected]/* */
Параметр BVOP формата : 3
Параметр QPel формата : Нет
Параметр GMC формата : Без точки перехода
Параметр матрицы формата : Default (MPEG)
Идентификатор кодека : XVID
Идентификатор кодека/Подсказка : XviD
Продолжительность : 2 ч. 4 м.
Битрейт : 1746 Кбит/сек
Ширина : 720 пикселей
Высота : 400 пикселей
Соотношение сторон : 16:9
Частота кадров : 25,000 кадров/сек
Цветовое пространство : YUV
Субдискретизация насыщенности : 4:2:0
Битовая глубина : 8 бит
Тип развёртки : Прогрессивная
Метод сжатия : С потерями
Бит/(Пиксели*Кадры) : 0.242
Размер потока : 1,52 Гбайт (82%)
Библиотека кодирования : XviD 64Аудио
Идентификатор : 1
Формат : AC-3
Формат/Информация : Audio Coding 3
Расширение режима : CM (complete main)
Параметр Endianness формата : Big
Идентификатор кодека : 2000
Продолжительность : 2 ч. 4 м.
Вид битрейта : Постоянный
Битрейт : 384 Кбит/сек
Каналы : 6 каналов
Расположение каналов : Front: L C R, Side: L R, LFE
Частота : 48,0 КГц
Частота кадров : 31,250 кадров/сек (1536 spf)
Метод сжатия : С потерями
Размер потока : 343 Мбайт (18%)
Выравнивание : Разделение по промежуткам
Продолжительность промежутка : 40 мс. (1,00 видеокадр)
Время предзагрузки промежутка : 500 мс.

Скриншот c названием фильма

Скриншоты

-Трейлер
Яндекс.Метрика
Рейтинг@Mail.ru