[ Сегодня на трекере фрилич! Идет свободное скачивание без начисления Download ]

Под маской: Восхождение Лесли Вернона / Behind the Mask: The Rise of Leslie Vernon (Скотт Глоссерман / Scott Glosserman) [2006 г., ужасы, триллер, комедия, HDRip] VO

 

Создавать темы 03-Сен-2016 05:43

-Под маской: Восхождение Лесли Вернона / Behind the Mask: The Rise of Leslie Vernon-- Производство: США, Code Entertainment, Glen Echo Entertainment
Год выпуска: 2006 г.
Жанр: ужасы, триллер, комедия
Продолжительность: 01:27:16Мировая премьера: 8 июля 2006
Перевод: Любительский (одноголосый, закадровый)
Режиссер: Скотт Глоссерман / Scott Glosserman-В ролях: Нэйтан Бэйзел, Анджела Геталс, Роберт Инглунд, Скотт Уилсон, Зельда Рубинштейн, Бриджетт Ньютон, Кейт Лэнг Джонсон, Бен Паке, Бритейн Спеллингс, Харт Тернер-Описание: На первый взгляд Лесли Вернон выглядит обычным милым провинциалом. Он полон амбиций и стремлений: затмить своей славой Фредди Крюгера, Джейсона Вурхиса и Майкла Майерса, став новым великим серийным убийцей. И как истинный шоумен, Лесли приглашает документалистку Тэйлор Джентри стать свидетелем своего кровавого восхождения на алтарь страха сонного городка Глен Ихо.-
Качество видео: HDRip
Контейнер: AVI
Видео кодек: XviD
Аудио кодек: AC3
Видео: 704x384 (1.83:1), 25 fps, XviD build 50 ~1997 kbps avg, 0.29 bit/pixel
Аудио: 48 kHz, AC3 Dolby Digital, 2/0 (L,R) ch, ~192 kbps
Cубтитры: отсутствуют

Награды

Сатурн, 2008 год
Номинации (1):
Лучшее DVD-издание

Рецензия

Скандалы, интриги, расследованияОднажды один не меру честолюбивый маньяк решил заткнуть за пояс всех звезд своей «профессии» — Фредди Крюгера, Джейсона Вурхиса и Майкла Майерса и стать легендой. Для этого он пригласил группу студентов, которые должны запечатлеть на кинопленку всё: и подготовку, и воплощение Глен Иховской резни чем получится. И вот, юная журналистка Тейлор Джентри ходит везде за Лесли Верноном и задает ему разные вопросы по типу «и что вы при этом чувствуете?», а зритель тем временем наслаждается раскладом, при котором всем многочисленным клише слэшеров находится объяснение — трудолюбие. Да-да, только трудолюбие маньяка, его приверженность традициям жанра дарит нам колья под окнами, нераскрывающиеся чердаки, скользкие крыши, вилы в удобных местах в сараях и всё такое.Особенно душу любителя слэшеров или нелюбителя штампов порадует интервью с опытным маньячиной, который даст конкретные советы как избежать расчленения во время пьяной вечеринки. И да, главный совет — «никогда не тусуйся с девственницами».Забавный фильм. Немного неровный: бодренько начинается, немного провисает в серединке, кровавенько заканчивается. Отличный маньяк и его наставник, хорошая съемочная группа (исключая Тейлор), чудная девушка-цель. У меня есть определенные претензии к концовке, но я — не из любителей слэшеров, я — из нелюбителей штампов. В целом меня этот фильм порадовал.Советую всем, кто любит черный юмор и нестандартный подход в кино.8 из 10

Media Info

Общее
Полное имя : C:\герои 7\Под маской Восхождение Лесли Вернона\Pod Maskoy.2006.HDRip.[pirat.ca].avi
Формат : AVI
Формат/Информация : Audio Video Interleave
Размер файла : 1,34 Гбайт
Продолжительность : 1 ч. 27 м.
Общий поток : 2200 Кбит/сек
Программа кодирования : VirtualDubMod 1.5.10.3 (build 2550/release)Видео
Идентификатор : 0
Формат : MPEG-4 Visual
Профиль формата : Advanced [email protected]/* */
Параметр BVOP формата : 2
Параметр QPel формата : Нет
Параметр GMC формата : Без точки перехода
Параметр матрицы формата : Выборочная
Идентификатор кодека : XVID
Идентификатор кодека/Подсказка : XviD
Продолжительность : 1 ч. 27 м.
Битрейт : 1998 Кбит/сек
Ширина : 704 пикселя
Высота : 384 пикселя
Соотношение сторон : 1,85:1
Частота кадров : 25,000 кадров/сек
Цветовое пространство : YUV
Субдискретизация насыщенности : 4:2:0
Битовая глубина : 8 бит
Тип развёртки : Прогрессивная
Метод сжатия : С потерями
Бит/(Пиксели*Кадры) : 0.296
Размер потока : 1,22 Гбайт (91%)
Библиотека кодирования : XviD 1.2.1 (UTC 2008-12-04)Аудио
Идентификатор : 1
Формат : AC-3
Формат/Информация : Audio Coding 3
Расширение режима : CM (complete main)
Параметр Endianness формата : Big
Идентификатор кодека : 2000
Продолжительность : 1 ч. 27 м.
Вид битрейта : Постоянный
Битрейт : 192 Кбит/сек
Каналы : 2 канала
Расположение каналов : Front: L R
Частота : 48,0 КГц
Частота кадров : 31,250 кадров/сек (1536 spf)
Метод сжатия : С потерями
Размер потока : 120 Мбайт (9%)
Выравнивание : Разделение по промежуткам
Продолжительность промежутка : 40 мс. (1,00 видеокадр)
Время предзагрузки промежутка : 500 мс.

Скриншот c названием фильма

Скриншоты

-Трейлер
Яндекс.Метрика
Рейтинг@Mail.ru