Макс. Динотерра / Max Adventures: Dinoterra / Сезон: 2 / Серии: 22 из 22 (Джерри Чинг / Jerry Ching) [2013 г., мультфильм, фэнтези, приключения, семейный, SATRip] Dub [Селена Интернешнл]

 

Создавать темы 03-Сен-2016 05:37

-Макс. Динотерра / Max Adventures: Dinoterra-- Производство: Сингапур, Egg Story Studios, Unilver
Режиссер: Джерри Чинг / Jerry Ching
Жанр: мультфильм, фэнтези, приключения, семейный
Год выпуска: 2013 г.
Продолжительность: 00:13:00Мировая премьера: 6 июня 2013
Перевод: Профессиональный (полное дублирование) [Селена Интернешнл]
Роли озвучивали: Даниил Эльдаров, ...-Описание: Мультсериал о приключениях льва Макса и его друзей. Вместе им предстоит пройти много испытаний и спасти королевство от Мастера Теней, который хочет стать властителем всего мира.
Мастер Теней вернулся и хочет переместиться в прошлое - чтобы завоевать мир!!! Но мы ему не позволим, правда же?! Захватывающие приключения ждут тебя, Макса и его команду в Динотерре!-Сэмпл КиноПоиск
Качество видео: SATRip
Контейнер: AVI
Видео кодек: XviD
Аудио кодек: AC3
Видео: 720x368 (1.96:1), 25 fps, XviD build 50 ~1499 kbps avg, 0.23 bit/pixel
Аудио: 48 kHz, AC3 Dolby Digital, 2/0 (L,R) ch, ~256 kbps
Cубтитры: отсутствуют

Доп. информация

Список серий:
01. Возвращение Мастера Теней
02. Зловещее предупреждение
03. Знакомство с динозаврами
04. Тайны ледяного замка
05. Опасные прогулки
06. В деревне черепах
07. Неожиданная помощь
08. Битва до нашей эры
09. Путь к таинственной горе
10. На краю гибели
11. В сердце вулкана
12. Старая знакомая
13. Сумрачный лес
14. В ловушке снов
15. Лучший друг — заклятый враг
16. Ночь в плену
17. Машина времени
18. До встречи в будущем!
19. Дома ждут дела
20. Своя чужая земля
21. Тени прошлого
22. Решающая битва

Media Info

Общее
Полное имя : F:\Макс\Max.Dinoterra.2013.[pirat.ca]\01. Возвращение Мастера Теней.avi
Формат : AVI
Формат/Информация : Audio Video Interleave
Размер файла : 164 Мбайт
Продолжительность : 12 м.
Общий поток : 1766 Кбит/сек
Программа кодирования : VirtualDubMod 1.5.10.3 | www.virtualdub-fr.org || (build 2550/release)Видео
Идентификатор : 0
Формат : MPEG-4 Visual
Профиль формата : Advanced [email protected]/* */
Параметр BVOP формата : 2
Параметр QPel формата : Нет
Параметр GMC формата : Без точки перехода
Параметр матрицы формата : Default (MPEG)
Идентификатор кодека : XVID
Идентификатор кодека/Подсказка : XviD
Продолжительность : 12 м.
Битрейт : 1500 Кбит/сек
Ширина : 720 пикселей
Высота : 368 пикселей
Соотношение сторон : 1,957
Частота кадров : 25,000 кадров/сек
Цветовое пространство : YUV
Субдискретизация насыщенности : 4:2:0
Битовая глубина : 8 бит
Тип развёртки : Прогрессивная
Метод сжатия : С потерями
Бит/(Пиксели*Кадры) : 0.226
Размер потока : 139 Мбайт (85%)
Библиотека кодирования : XviD 1.2.1 (UTC 2008-12-04)Аудио
Идентификатор : 1
Формат : AC-3
Формат/Информация : Audio Coding 3
Расширение режима : CM (complete main)
Параметр Endianness формата : Big
Идентификатор кодека : 2000
Продолжительность : 12 м.
Вид битрейта : Постоянный
Битрейт : 256 Кбит/сек
Каналы : 2 канала
Расположение каналов : Front: L R
Частота : 48,0 КГц
Частота кадров : 31,250 кадров/сек (1536 spf)
Метод сжатия : С потерями
Размер потока : 23,8 Мбайт (14%)
Выравнивание : Разделение по промежуткам
Продолжительность промежутка : 40 мс. (1,00 видеокадр)
Время предзагрузки промежутка : 500 мс.

Скриншот c названием мультфильма

Скриншоты

-Трейлер
Яндекс.Метрика
Рейтинг@Mail.ru