[ Сегодня на трекере фрилич! Идет свободное скачивание без начисления Download ]

Макс. Маджилика / Max Adventures: Magilika / Сезон: 3 / Серии: 22 из 22 (Джерри Чинг / Jerry Ching) [2014 г., Мультсериал, детский, семейный, приключения, SATRip] Dub [Селена Интернешнл]

 

Создавать темы 03-Сен-2016 05:35

-Max Adventures: Magilika / Макс. Маджилика-- Производство: Сингапур
Режиссер: Джерри Чинг / Jerry Ching
Жанр: Мультсериал, детский, семейный, приключения
Год выпуска: 2014 г.
Продолжительность: 00:13:00Мировая премьера: 3 июля 2014
Перевод: Профессиональный (полное дублирование) [Селена Интернешнл]
Роли озвучивали: Говорящие животные-Описание: Новые приключения льва Макса и его друзей! Пропал Лунный кристалл, и злая тьма начинает распространяться по всему миру. Звездная Волшебница просит помощи у льва Макса. Он должен найти ее брата и его магический Солнечный кристалл, который может победить тьму. Друзья обнаруживают, что этот кристалл разбит на три части. Они должны объединить недостающие фрагменты, прежде чем наступит вечное затмение. Но, конечно же, им мешают злодеи во главе с самим Мастером Теней. Успеют ли друзья снова спасти мир? Победит ли свет вечную тьму?-Сэмпл КиноПоиск
Качество видео: SATRip
Контейнер: AVI
Видео кодек: XviD
Аудио кодек: AC3
Видео: 720x384 (1.88:1), 25 fps, XviD build 50 ~1699 kbps avg, 0.25 bit/pixel
Аудио: 48 kHz, AC3 Dolby Digital, 2/0 (L,R) ch, ~192 kbps
Cубтитры: отсутствуют

Доп. информация

Список серий:
01. Новый вызов. Затмение
02. Тайна упавшей звезды
03. Ловушка в библиотеке сов
04. Лес пауков
05. Атака пиратов
06. Новый друг
07. Загадка лесных эльфов
08. Заклятие цветов
09. Пещера с алмазами
10. Только не смотри!
11. Горячий кристалл
12. Нападение гигантской гусеницы
13. Деревня овец в опасности
14. Долина оборотней
15. Возвращение мастера теней
16. Огнедышащая встреча
17. В плену у троллей
18. Магия угля – ключ к спасению
19. Схватка за лунный кристалл
20. Опасные акулы пустыни
21. Мастер теней атакует
22. Решающая битва

Media Info

Общее
Полное имя : F:\Макс\Max.Magilika.2014.[pirat.ca]\01. Новый вызов. Затмение.avi
Формат : AVI
Формат/Информация : Audio Video Interleave
Размер файла : 177 Мбайт
Продолжительность : 13 м.
Общий поток : 1902 Кбит/сек
Название фильма : 01. Новый вызов. Затмение
Программа кодирования : VirtualDubMod 1.5.10.3 | www.virtualdub-fr.org || (build 2550/release)Видео
Идентификатор : 0
Формат : MPEG-4 Visual
Профиль формата : Advanced [email protected]/* */
Параметр BVOP формата : 1
Параметр QPel формата : Нет
Параметр GMC формата : Без точки перехода
Параметр матрицы формата : Default (H.263)
Идентификатор кодека : XVID
Идентификатор кодека/Подсказка : XviD
Продолжительность : 13 м.
Битрейт : 1700 Кбит/сек
Ширина : 720 пикселей
Высота : 384 пикселя
Соотношение сторон : 1,85:1
Частота кадров : 25,000 кадров/сек
Цветовое пространство : YUV
Субдискретизация насыщенности : 4:2:0
Битовая глубина : 8 бит
Тип развёртки : Прогрессивная
Метод сжатия : С потерями
Бит/(Пиксели*Кадры) : 0.246
Размер потока : 158 Мбайт (89%)
Библиотека кодирования : XviD 1.2.1 (UTC 2008-12-04)Аудио
Идентификатор : 1
Формат : AC-3
Формат/Информация : Audio Coding 3
Расширение режима : CM (complete main)
Параметр Endianness формата : Big
Идентификатор кодека : 2000
Продолжительность : 13 м.
Вид битрейта : Постоянный
Битрейт : 192 Кбит/сек
Каналы : 2 канала
Расположение каналов : Front: L R
Частота : 48,0 КГц
Частота кадров : 31,250 кадров/сек (1536 spf)
Метод сжатия : С потерями
Размер потока : 17,9 Мбайт (10%)
Выравнивание : Разделение по промежуткам
Продолжительность промежутка : 40 мс. (1,00 видеокадр)
Время предзагрузки промежутка : 500 мс.

Скриншот c названием мультфильма

Скриншоты

-Трейлер
Яндекс.Метрика
Рейтинг@Mail.ru