Сказания Зестирии / Tales of Zestiria: The X / Tales of Zestiria: The Cross / Сезон: 1 / Серии: 9 из 13 (Сотодзаки Харуо) [2016 г., фэнтези, приключения, HD TVRIP-AVC, 720p] DVO + MVO + Sub (Rus)

 

Создавать темы 03-Сен-2016 05:33

-Сказания Зестирии / Tales of Zestiria: The X / Tales of Zestiria: The Cross-- Производство: Япония, UFO Table
Режиссер: Сотодзаки Харуо
Жанр: фэнтези, приключения
Год выпуска: 2016 г.
Продолжительность: 00:24:00Мировая премьера: 25 июня 2016
Перевод: Любительский (двухголосый, закадровый) [SHIZA Project]
Перевод 2: Любительский (многоголосый, закадровый) [AniDub]
Оригинальный аудиопоток: японскийРоли озвучивали: Кимура Рёхэй, Осака Рёта, Каяно Ай, Комацу Микако, Ситая Норико, Фукуэн Мисато-Описание: Юноша по имени Слей вырос в окружении серафимов — божественных существ, скрытых от глаз обычных людей. Он всегда верил в легенду, гласящую, что давным-давно каждый без исключения человек мог видеть серафимов, и мечтал, чтобы обе расы снова начали жить в мире и гармонии друг с другом. Впервые очутившись в человеческой столице, Слей невольно становится участником инцидента, в ходе которого вытаскивает из скалы святой меч. Следом за этим он провозглашается одним из тех, кого называют «пастырями», — человеком, обязанным защищать мир от зла. Вскоре юноша начинает осознавать, какая ответственность лежит на его плечах, и мечта о сосуществовании людей и серафимов становится все реальней... На пути к желаемому юного пастыря поджидает множество опасностей, но вместе с верными друзьями он обязательно преодолеет их все!-Сэмпл ANIDB
Качество видео: HD TVRIP-AVC
Контейнер: MKV
Стандарт разрешения: 720p
Видео кодек: MPEG4 AVC
Аудио кодек: AAC
Видео: 1280x720, 23.976 fps, 2700 kbps
Аудио #1: 48.0 kHz, AAC, 2 ch, 180 kbps - SHIZA Project
Аудио #2: 48.0 kHz, AAC, 2 ch, 165 kbps - AniDub
Аудио #3: 48.0 kHz, AAC, 2 ch, 192 kbpsCубтитры: русские
Формат субтитров: softsub (SRT)
Доп. информация о субтитрах: включаемые

Media Info

Общее
Уникальный идентификатор : 170366737651950605165203708240984483632 (0x802B70AE23817722B63472FE8F472730)
Полное имя : F:\Сказания Зестирии\Tales of Zestiria - The X TV [HDTVRip-AVC.720p.[pirat.ca]\Tales of Zestiria - The X TV [00].mkv
Формат : Matroska
Версия формата : Version 4 / Version 2
Размер файла : 803 Мбайт
Продолжительность : 24 м.
Общий поток : 4660 Кбит/сек
Дата кодирования : UTC 2016-08-28 17:43:16
Программа кодирования : mkvmerge v8.3.0 ('Over the Horizon') 64bit
Библиотека кодирования : libebml v1.3.1 + libmatroska v1.4.2Видео
Идентификатор : 1
Формат : AVC
Формат/Информация : Advanced Video Codec
Профиль формата : [email protected]/* */
Параметр CABAC формата : Да
Параметр ReFrames формата : 4 кадра
Идентификатор кодека : V_MPEG4/ISO/AVC
Продолжительность : 23 м.
Битрейт : 4138 Кбит/сек
Ширина : 1280 пикселей
Высота : 720 пикселей
Соотношение сторон : 16:9
Режим частоты кадров : Постоянный
Частота кадров : 23,976 (24000/1001) кадра/сек
Цветовое пространство : YUV
Субдискретизация насыщенности : 4:2:0
Битовая глубина : 8 бит
Тип развёртки : Прогрессивная
Бит/(Пиксели*Кадры) : 0.187
Размер потока : 710 Мбайт (88%)
Библиотека кодирования : x264 core 129 r2245+729M 1a52e03
Настройки программы : cabac=1 / ref=4 / deblock=1:1:-1 / analyse=0x3:0x113 / me=umh / subme=9 / psy=1 / fade_compensate=0.00 / psy_rd=1.00:0.00 / mixed_ref=1 / me_range=24 / chroma_me=1 / trellis=2 / 8x8dct=1 / cqm=0 / deadzone=21,11 / fast_pskip=1 / chroma_qp_offset=-2 / threads=8 / lookahead_threads=1 / sliced_threads=0 / nr=0 / decimate=1 / interlaced=0 / bluray_compat=0 / constrained_intra=0 / fgo=0 / bframes=9 / b_pyramid=2 / b_adapt=2 / b_bias=0 / direct=1 / weightb=1 / open_gop=0 / weightp=2 / keyint=240 / keyint_min=24 / scenecut=40 / intra_refresh=0 / rc=crf / mbtree=0 / crf=17.5 / qcomp=0.72 / qpmin=0 / qpmax=69 / qpstep=4 / ip_ratio=1.40 / pb_ratio=1.30 / aq=1:0.85
Язык : Japanese
Default : Да
Forced : Нет
Цветовой диапазон : Limited
Основные цвета : BT.709
Характеристики трансфера : BT.709
Коэффициенты матрицы : BT.709Аудио #1
Идентификатор : 2
Формат : AAC
Формат/Информация : Advanced Audio Codec
Профиль формата : LC
Идентификатор кодека : A_AAC
Продолжительность : 23 м.
Битрейт : 180 Кбит/сек
Каналы : 2 канала
Расположение каналов : Front: L R
Частота : 48,0 КГц
Частота кадров : 46,875 кадров/сек (1024 spf)
Метод сжатия : С потерями
Задержка видео : 9 мс.
Размер потока : 30,9 Мбайт (4%)
Заголовок : SHIZA Project
Язык : Russian
Default : Да
Forced : НетАудио #2
Идентификатор : 3
Формат : AAC
Формат/Информация : Advanced Audio Codec
Профиль формата : LC
Идентификатор кодека : A_AAC
Продолжительность : 24 м.
Битрейт : 165 Кбит/сек
Каналы : 2 канала
Расположение каналов : Front: L R
Частота : 48,0 КГц
Частота кадров : 46,875 кадров/сек (1024 spf)
Метод сжатия : С потерями
Размер потока : 28,4 Мбайт (4%)
Заголовок : AniDub
Язык : Russian
Default : Нет
Forced : НетАудио #3
Идентификатор : 4
Формат : AAC
Формат/Информация : Advanced Audio Codec
Профиль формата : LC
Идентификатор кодека : A_AAC
Продолжительность : 23 м.
Битрейт : 192 Кбит/сек
Каналы : 2 канала
Расположение каналов : Front: L R
Частота : 48,0 КГц
Частота кадров : 46,875 кадров/сек (1024 spf)
Метод сжатия : С потерями
Размер потока : 32,9 Мбайт (4%)
Заголовок : Original
Язык : Japanese
Default : Нет
Forced : НетТекст
Идентификатор : 5
Формат : ASS
Идентификатор кодека : S_TEXT/ASS
Идентификатор кодека/Информация : Advanced Sub Station Alpha
Продолжительность : 20 м.
Битрейт : 90 бит/сек
Count of elements : 215
Метод сжатия : Без потерь
Размер потока : 13,7 Кбайт (0%)
Заголовок : Полные субтитры
Язык : Russian
Default : Да
Forced : Нет

Скриншот c названием мультфильма

Скриншоты

-Трейлер
Яндекс.Метрика
Рейтинг@Mail.ru