Друзья / Friends / Сезон: 1 / Серии: 1-24 (24) (Робби Бенсон / Robby Benson, ...) [1994 г., мелодрама, комедия, BDRemux, 1080p] MVO (True Dubbing Studio, РТР-СТС) + Original (Eng) + Sub (Rus, Eng)

 

Создавать темы 03-Сен-2016 05:31

-Друзья / Friends
«Everybody needs Friends!»
(1 сезон)
-- Производство: США
Жанр: мелодрама, комедия
Год выпуска: 1994 г.
Продолжительность: 24 ~00:22:00Перевод: Профессиональный (многоголосый, закадровый) [True Dubbing Studio]
Перевод 2: Профессиональный (многоголосый, закадровый) [РТР-СТС]
Оригинальный аудиопоток: английскийРежиссер: Робби Бенсон / Robby Benson, Питер Бонерц / Peter Bonerz, Кевин Брайт / Kevin Bright и другие.-В ролях: Дженнифер Энистон, Кортни Кокс, Лиза Кудроу, Мэтт ЛеБлан, Мэттью Перри, Дэвид Швиммер, Джеймс Майкл Тайлер, Эллиот Гулд, Кристина Пиклз, Мэгги Уилер-Описание: Главные герои - шестеро друзей - Рейчел, Моника, Фиби, Джоуи, Чендлер и Росс. Три девушки и три парня, которые дружат, живут по соседству, вместе убивают время и противостоят жестокой реальности, делятся своими секретами и иногда очень сильно влюбляются.- -Качество видео: BDRemux
Контейнер: MKV
Стандарт разрешения: 1080p
Видео кодек: H.264/AVC
Аудио кодек: AC3
Видео: 1920x1080 at 23.976 fps, ~15,0 Mbps avg
Аудио: Russian: 48 kHz, AC3, 2/0 (L,R) ch, ~192.00 kbps avg |Многоголосый закадровый, True Dubbing Studio по заказу Paramount Comedy (2016)|
Аудио #2: Russian: 48 kHz, AC3, 2/0 (L,R) ch, ~192.00 kbps avg |Многоголосый, закадровый, РТР-СТС|
Аудио #3: English: 48 kHz, AC3, 3/2 (L,C,R,l,r) + LFE ch, ~640.00 kbps avgCубтитры: Russian, English

Список серий

01. Пилотный эпизод (Эпизод, где Моника берёт новую соседку) / The Pilot
Фиби, Моника, Джо, Чендлер и Росс появляются на экране первый раз. В Центральной кофейне появляется Рэйчел, школьная подруга Моники, сбежавшая со своей свадьбы. Она остаётся жить у Моники.
02. Эпизод с сонограммой в конце / The One with the Sonogram at the End
Бывшая жена Росса, Кэрол, сообщает ему, что ждёт ребёнка и хочет, чтобы тот принял участие в его воспитании. Рэйчел хочет вернуть своему жениху Барри обручальное кольцо и узнаёт, что тот встречается с её лучшей подругой Минди.
03. Эпизод с большим пальцем / The One with the Thumb
Фиби неожиданно получает много денег и не знает, что с ними делать. Чендлер снова начинает курить.
04. Эпизод с Джорджем Стефанопулосом / The One with George Stephanopoulos
Девушки устраивают дома небольшую вечеринку. Росс снова вспоминает о Кэрол, и Джо и Чендлер берут его на хоккей. В разгар матча в лицо Росса влетает шайба.
05. Эпизод с восточногерманским стиральным порошком / The One with the East German Laundry Detergent
Моника и Джо вместе идут на свидание с бывшей девушкой Джо и её парнем. Росс сопровождает Рэйчел в прачечную. Чендлер решается разорвать отношения с Дженис.
06. Эпизод с задом / The One with the Butt
Джо, благодаря своему новому агенту Эстель, получает роль дублёра зада Аль Пачино в новом фильме. Чендлер узнаёт, что его новая подруга замужем и имеет несколько любовников. Монику задевает то, что все думают, что она чересчур чистоплотна.
07. Эпизод, в котором отключается свет / The One with the Blackout
Во всём Нью-Йорке отключается свет. Чендлер оказывается заперт в вестибюле ATM с известной моделью. Рэйчел знакомится с итальянцем Пауло, который не знает ни одного слова по-английски.
08. Эпизод, где Нана умирает дважды / The One Where Nana Dies Twice
Умирает бабушка Росса и Моники. В госпитале она на мгновенье возвращается к жизни. Чендлер узнаёт, что многие его знакомые считают, что он — гомосексуалист.
09. Эпизод, где улетает Суперпёс / The One Where Underdog Gets Away
Благодаря рекламе больницы, в которой снимался Джо, весь город думает, что у него венерическое заболевание. Рэйчел пытается заработать денег, чтобы съездить в горы вместе с семьёй. Все остальные бегут на крышу, чтобы посмотреть на воздушный шар Суперпса, а дверь квартиры Моники захлопывается. Рэйчел никуда не едет, и друзья проводят День благодарения вместе.
10. Эпизод с обезьяной / The One with the Monkey
Росс заводит экзотическую обезьянку Марселя. Фиби встречает учёного Дэвида, и у них начинается роман. Друзья посредственно встречают Новый год — их планы на праздник не сбываются.
11. Эпизод с госпожой Бинг / The One with Mrs. Bing
Мать Чендлера, писательница эротических книг Нора навещает друзей и целуется с Россом. Фиби и Моника ухаживают за парнем, лежащим в коме. Рэйчел пытается написать собственный любовный роман.
12. Эпизод с дюжиной лазаний / The One with the Dozen Lasagnas
Моника пытается избавиться от двенадцати лазаний. Фиби рассказывает Рэйчел правду о Пауло. Чендлер и Джо покупают настольный футбол для своей квартиры.
13. Эпизод с грудью / The One with the Boobies
Чендлер случайно видит Рэйчел голой, и та пытается ему отомстить. К Джо приезжает его отец, и выясняется, что он изменяет матери. Фиби встречается с парнем-психотерапевтом, которого ненавидят все её друзья.
14. Эпизод с конфетками-сердцами / The One with the Candy Hearts
Чендлер и Джо идут на двойное свидание. Девушки устраивают ритуал очищения, который приводит к пожару. Чендлер снова разрывает отношения с Дженис.
15. Эпизод с обкуренным парнем / The One with the Stoned Guy
Чендлер пытается принять решение по поводу повышения на работе. Моника пытается произвести впечатление на владельца ресторана. Джо учит Росса говорить непристойности девушкам.
16. Эпизод с двумя частями, часть 1 / The One with Two Parts, Part 1
Чендлер и Джо встречают Урсулу, сестру-близнеца Фиби. Джо с ней встречается. Росс вместе с Кэрол и Сьюзен посещает курсы будущих родителей. Чендлер пытается уволить подчинённую.
17. Эпизод с двумя частями, часть 2 / The One with Two Parts, Part 2
Рэйчел повреждает лодыжку и подговаривает Монику использовать её медицинскую страховку. Они назначают свидания докторам из больницы. Росс везёт Марселя, проглотившего буквы из игры, в больницу и понимает, что готов стать отцом.
18. Эпизод с покером / The One with All the Poker
Девушки учатся играть в покер под руководством родственницы Моники, Ирис. Рэйчел не получает работу, и Росс позволяет ей обыграть себя.
19. Эпизод, где обезьяна сбегает / The One Where the Monkey Gets Away
Марсель, оставленный на попечение Рэйчел, убегает из дома. Друзья пытаются найти его, ничего не говоря Россу.
20. Эпизод со злым ортодонтом / The One with the Evil Orthodontist
Минди и Рэйчел узнают, что Барри встречается с ними обеими, и решают выяснить с ним отношения. Друзья узнают, что кто-то наблюдает за ними в телескоп.
21. Эпизод с фальшивой Моникой / The One with Fake Monica
Моника узнаёт, что её кредитной картой пользуется кто-то другой, и знакомится с женщиной, которая выдаёт себя за неё. Росс отдаёт Марселя в зоопарк.
22. Эпизод с ик-фактором / The One with the Ick Factor
Моника встречается с 17-летним школьником. Рэйчел снятся эротические сны с Джо и Чендлером. Фиби устраивается секретарём Чендлера и рассказывает ему об отношении других работников.
23. Эпизод с рождением / The One with the Birth
Кэрол готовится родить. Росс, Сьюзан и Фиби оказываются запертыми в подсобке и выбираются оттуда как раз к моменту рождения мальчика, Бэна. Джо ухаживает за одинокой молодой матерью.
24. Эпизод, где Рейчел понимает / The One Where Rachel Finds Out
Росс уезжает на раскопки в Китай, а Чендлер случайно проговаривается Рэйчел о чувствах Геллера к ней. Рэйчел отправляется в аэропорт, но Росс выходит из самолёта с девушкой. Джо участвует в медицинском эксперименте.

Media Info

Код:
Format                      : Matroska
Format version              : Version 4 / Version 2
File size                   : 2.55 GiB
Duration                    : 22mn 49s
Overall bit rate mode       : Variable
Overall bit rate            : 16.0 Mbps
Movie name                  : Friends 1x01 (1994)
Encoded date                : UTC 2016-08-30 17:33:31
Writing application         : mkvmerge v6.0.0 ('Coming Up For Air') built on Jan 20 2013 09:52:00
Writing library             : libebml v1.3.0 + libmatroska v1.4.0
DURATION                    : 00:22:49.408000000
NUMBER_OF_FRAMES            : 42794
NUMBER_OF_BYTES             : 109552640
_STATISTICS_WRITING_APP     : mkvmerge v9.0.1 ('Obstacles') 64bit
_STATISTICS_WRITING_DATE_UT : 2016-04-12 22:17:00
_STATISTICS_TAGS            : BPS DURATION NUMBER_OF_FRAMES NUMBER_OF_BYTESVideo
ID                          : 1
Format                      : AVC
Format/Info                 : Advanced Video Codec
Format profile              : [email protected]/*  */
Format settings, CABAC      : Yes
Format settings, ReFrames   : 4 frames
Codec ID                    : V_MPEG4/ISO/AVC
Duration                    : 22mn 49s
Bit rate mode               : Variable
Bit rate                    : 15.0 Mbps
Maximum bit rate            : 24.0 Mbps
Width                       : 1 920 pixels
Height                      : 1 080 pixels
Display aspect ratio        : 16:9
Frame rate mode             : Constant
Frame rate                  : 23.976 fps
Color space                 : YUV
Chroma subsampling          : 4:2:0
Bit depth                   : 8 bits
Scan type                   : Progressive
Bits/(Pixel*Frame)          : 0.302
Stream size                 : 2.34 GiB (92%)
Title                       : Friends 1x01
Writing library             : x264 core 104 r1683 62997d6
Encoding settings           : cabac=1 / ref=3 / deblock=1:-1:-1 / analyse=0x3:0x133 / me=umh / subme=10 / psy=1 / psy_rd=1.00:0.25 / mixed_ref=1 / me_range=24 / chroma_me=1 / trellis=2 / 8x8dct=1 / cqm=0 / deadzone=6,6 / fast_pskip=0 / chroma_qp_offset=-4 / threads=12 / sliced_threads=0 / slices=1 / nr=0 / decimate=0 / interlaced=0 / constrained_intra=0 / bframes=2 / b_pyramid=2 / b_adapt=2 / b_bias=0 / direct=3 / weightb=1 / open_gop=2 / weightp=0 / keyint=24 / keyint_min=2 / scenecut=40 / intra_refresh=0 / rc_lookahead=24 / rc=2pass / mbtree=1 / bitrate=15000 / ratetol=1.0 / qcomp=0.80 / qpmin=4 / qpmax=51 / qpstep=4 / cplxblur=20.0 / qblur=0.5 / vbv_maxrate=24000 / vbv_bufsize=20000 / ip_ratio=1.10 / aq=1:0.50 / nal_hrd=vbr
Language                    : English
Default                     : Yes
Forced                      : No
Color primaries             : BT.709
Transfer characteristics    : BT.709
Matrix coefficients         : BT.709
Color range                 : Limited
DURATION                    : 00:22:48.450000000
NUMBER_OF_FRAMES            : 32810
NUMBER_OF_BYTES             : 2564681542
_STATISTICS_WRITING_APP     : mkvmerge v9.0.1 ('Obstacles') 64bit
_STATISTICS_WRITING_DATE_UT : 2016-04-12 22:17:00
_STATISTICS_TAGS            : BPS DURATION NUMBER_OF_FRAMES NUMBER_OF_BYTESAudio #1
ID                          : 2
Format                      : AC-3
Format/Info                 : Audio Coding 3
Mode extension              : CM (complete main)
Format settings, Endianness : Big
Codec ID                    : A_AC3
Duration                    : 22mn 49s
Bit rate mode               : Constant
Bit rate                    : 192 Kbps
Channel(s)                  : 2 channels
Channel positions           : Front: L R
Sampling rate               : 48.0 KHz
Bit depth                   : 16 bits
Compression mode            : Lossy
Stream size                 : 31.3 MiB (1%)
Title                       : True Dubbing Studio
Language                    : Russian
Default                     : Yes
Forced                      : NoAudio #2
ID                          : 3
Format                      : AC-3
Format/Info                 : Audio Coding 3
Mode extension              : CM (complete main)
Format settings, Endianness : Big
Codec ID                    : A_AC3
Duration                    : 22mn 49s
Bit rate mode               : Constant
Bit rate                    : 192 Kbps
Channel(s)                  : 2 channels
Channel positions           : Front: L R
Sampling rate               : 48.0 KHz
Bit depth                   : 16 bits
Compression mode            : Lossy
Stream size                 : 31.3 MiB (1%)
Title                       : РТР
Language                    : Russian
Default                     : No
Forced                      : NoAudio #3
ID                          : 4
Format                      : AC-3
Format/Info                 : Audio Coding 3
Mode extension              : CM (complete main)
Format settings, Endianness : Big
Codec ID                    : A_AC3
Duration                    : 22mn 49s
Bit rate mode               : Constant
Bit rate                    : 640 Kbps
Channel(s)                  : 6 channels
Channel positions           : Front: L C R, Side: L R, LFE
Sampling rate               : 48.0 KHz
Bit depth                   : 16 bits
Compression mode            : Lossy
Stream size                 : 104 MiB (4%)
Language                    : English
Default                     : No
Forced                      : NoText #1
ID                          : 5
Format                      : UTF-8
Codec ID                    : S_TEXT/UTF8
Codec ID/Info               : UTF-8 Plain Text
Title                       : РТР
Language                    : Russian
Default                     : No
Forced                      : NoText #2
ID                          : 6
Format                      : UTF-8
Codec ID                    : S_TEXT/UTF8
Codec ID/Info               : UTF-8 Plain Text
Language                    : English
Default                     : No
Forced                      : NoMenu
00:00:00.000                : en:00:00:00.000
00:05:10.101                : en:00:05:10.101
00:14:11.642                : en:00:14:11.642
00:22:09.078                : en:00:22:09.078

Скриншот c названием фильма

Скриншоты

Яндекс.Метрика
Рейтинг@Mail.ru