Доктор Голливуд / Doc Hollywood (Майкл Кейтон-Джонс / Michael Caton-Jones) [1991 г., Лирическая комедия, WEB-DLRip] Dub

 

Создавать темы 03-Сен-2016 05:26

-Доктор Голливуд / Doc Hollywood-- Производство: США, Warner Bros. Pictures
Год выпуска: 1991 г.
Жанр: Лирическая комедия
Продолжительность: 01:43:24Мировая премьера: 2 августа 1991
Перевод: Профессиональный (полное дублирование) [Варус Видео]
Режиссер: Майкл Кейтон-Джонс / Michael Caton-Jones-В ролях: Майкл Дж. Фокс, Джули Уорнер, Барнард Хьюз, Вуди Харрельсон, Бриджит Фонда, Фрэнсис Стернхаген, Джордж Хэмилтон, Дэвид Огден Стайерз, Мел Уинклер, Хелен Мартин-Описание: Судьба подложила ему свинью. Бенджи Стоун был подающим надежды пластическим хирургом, ехал в Голливуд, и вдруг — авария на главной улице какого-то захолустного городка. Кто виноват? Конечно, Бенджи.
Полиция определяет нарушителю наказание: 32 часа принудительных работ терапевтом в местной больнице. Нормально? Доктор Голливуд приступает к работе. И самое дикое — она ему нравится. Потому что рядом — прехорошенькая провинциалочка.-
Качество видео: WEB-DLRip
Контейнер: AVI
Видео кодек: XviD
Аудио кодек: AC3
Видео: 704x400 (1.76:1), 23.976 fps, XviD build 73 ~1628 kbps avg, 0.24 bit/pixel
Аудио: 48 kHz, AC3 Dolby Digital, 2/0 (L,R) ch, ~192 kbps
Cубтитры: отсутствуют

Рецензия

Замечательный, легкий и такой уютный фильм.Ни к чему не обязывающая, душевная и красивая история с хорошей долей юмора, рассказанная на фоне красивого провинциального городка.Жизненные истории таких городков просты, незамысловаты и лишены проблем Большого города. Здесь каждый друг друга знает настолько, что может сказать кто что ест на завтрак) Разглядеть в водовороте постоянной погони в поисках славы и денег настоящие чувства и предстоит нашему герою. Теплота, с которой раскрыт каждый персонаж, трогает и остаётся с тобой. Вот уж поистине уютный фильм! После просмотра понимаешь бренность нашего мира и чувствуешь истинные ценности жизни: любовь, теплоту, взаимоуважение… А также понимаешь, что всем нам надо быть проще, ценить то, что имеешь, ценить людей, которые рядом и любить свою малую родину," где родился и пригодился».Отличный фильм с бесподобным М. Дж. Фоксом, одна из лучших его работ.10 из 10

Media Info

Общее
Полное имя : C:\герои 7\Доктор Голливуд\Doc Hollywood.1991.WEB-DLRip.[pirat.ca].avi
Формат : AVI
Формат/Информация : Audio Video Interleave
Размер файла : 1,32 Гбайт
Продолжительность : 1 ч. 43 м.
Общий поток : 1830 Кбит/сек
Программа кодирования : VirtualDubMod 1.5.10.3 (build 2550/release)
Библиотека кодирования : VirtualDubMod build 2550/releaseВидео
Идентификатор : 0
Формат : MPEG-4 Visual
Профиль формата : Advanced [email protected]/* */
Параметр BVOP формата : 1
Параметр QPel формата : Нет
Параметр GMC формата : Без точки перехода
Параметр матрицы формата : Выборочная
Идентификатор кодека : XVID
Идентификатор кодека/Подсказка : XviD
Продолжительность : 1 ч. 43 м.
Битрейт : 1629 Кбит/сек
Ширина : 704 пикселя
Высота : 400 пикселей
Соотношение сторон : 16:9
Частота кадров : 23,976 (24000/1001) кадра/сек
Цветовое пространство : YUV
Субдискретизация насыщенности : 4:2:0
Битовая глубина : 8 бит
Тип развёртки : Прогрессивная
Метод сжатия : С потерями
Бит/(Пиксели*Кадры) : 0.241
Размер потока : 1,18 Гбайт (89%)
Библиотека кодирования : XviD 73Аудио
Идентификатор : 1
Формат : AC-3
Формат/Информация : Audio Coding 3
Расширение режима : CM (complete main)
Параметр Endianness формата : Big
Идентификатор кодека : 2000
Продолжительность : 1 ч. 43 м.
Вид битрейта : Постоянный
Битрейт : 192 Кбит/сек
Каналы : 2 канала
Расположение каналов : Front: L R
Частота : 48,0 КГц
Частота кадров : 31,250 кадров/сек (1536 spf)
Метод сжатия : С потерями
Размер потока : 142 Мбайт (10%)
Выравнивание : Разделение по промежуткам
Продолжительность промежутка : 42 мс. (1,00 видеокадр)
Время предзагрузки промежутка : 500 мс.

Скриншот c названием фильма

Скриншоты

-Трейлер
Яндекс.Метрика
Рейтинг@Mail.ru