Красавица и чудовище: Чудесное Рождество / Beauty and the Beast: The Enchanted Christmas (Эндрю Найт)[1997,мультфильм, фэнтези, семейный, музыка, BDRip-HEVC 720p] от Freeisland

 

Создавать темы 04-Янв-2014 17:51

Красавица и чудовище: Чудесное Рождество
Beauty and the Beast: The Enchanted Christmas-- Год выпуска: 1997
Страна: США , Канада
Жанр: мультфильм, фэнтези, семейный, музыка
Продолжительность: 01:10:43
Перевод: Профессиональный (дублированный)
Субтитры: Russian (UTF-8), English (UTF-8)
Режиссер: Эндрю Найт
Сценарий: Флип Коблер, Синди Маркус, Билл Моц, ...
Продюсер: Сьюзэн Капиджиан
Композитор: Рэйчел Портман
Художник: Брэд Грэхэм, Джули Эберли, Клайв Поуси
Монтаж: Дэниэл Ли
В ролях: Пейдж О’Хара / Paige O'Hara (Belle, озвучка), Робби Бенсон / Robby Benson (Beast, озвучка), Джерри Орбак / Jerry Orbach (Lumiere, озвучка), Дэвид Огден Стайерз / David Ogden Stiers (Cogsworth, озвучка), Бернадетт Питерс / Bernadette Peters (Angelique, озвучка), Тим Карри / Tim Curry (Forte, озвучка), Хэйли Джоэл Осмент / Haley Joel Osment (Chip, озвучка), Фрэнк Уэлкер / Frank Welker (Phillippe, Sultan, озвучка), Джефф Беннетт / Jeff Bennett (Axe, Poke, озвучка), Джим Каммингс / Jim Cummings (Various, озвучка)
Описание: Любовь Белл к чудовищу изменила все вокруг и теперь все заколдованные предметы в замке снова стали людьми, даже маленький Чип, некогда бывший всего лишь маленькой чашечкой. В свое первое Рождество, которое Чип встречает не как чашечка, а как мальчик, он просит маму рассказать, что же на самом деле случилось в замке прошлым Рождеством. Рождество — это время волшебства, но сильнее всего на свете оно в замке чудовища. Время тьмы и горя ушло навеки, но что способствовало этому?
Премьера (мир): 11 ноября 1997
Рейтинг MPAA: Нет возрастных ограничений

Внимание
Рип в фомате HEVC, в настоящее время не поддерживается аппаратными проигрывателями.
Для корректного воспроизведения может потребоваться обновление ПО.
Владельцам несовместимого железа просьба не беспокоить, на трекере есть альтернативные релизы.


Качество: BDRip 720р HEVC (SSIM: 0.991376)
Формат: MKV
Видео кодек: x265
Аудио кодеk: AC3
Видео: HEVC at 1280x720 (16:9), 23.976 fps, 1 697 Kbps
Аудио #1: AC3, 192 Kbps, 48.0 KHz, 2 ch Дубляж "Невафильм"
Аудио #2: AC3, 448 Kbps, 48.0 KHz, 6 ch Многоголосый закадровый
Аудио #3: AC3, 448 Kbps, 48.0 KHz, 6 ch Авторский Юрий Живов
Аудио #4: AC3, 448 Kbps, 48.0 KHz, 6 ch Авторский Александр Кашкин
Аудио #5: AC3, 192 Kbps, 48.0 KHz, 2 ch Авторский Николай "Антонов" [VHS Hi-Fi]
Аудио #6: AC3, 640 Kbps, 48.0 KHz, 6 ch Оригинал
--

x265 (основные настройки энкода, не отображаются в MI)


x265 [info]: HEVC encoder version 0.6+239-8137881d4cad
x265 [info]: build info [Windows][GCC 4.8.2][64 bit] 8bpp
x265 [info]: Main profile, Level-5.2 (Main tier)
x265 [info]: WPP streams / pool / frames : 12 / 4 / 4
x265 [info]: CU size : 64
x265 [info]: Max RQT depth inter / intra : 2 / 2
x265 [info]: ME / range / subpel / merge : umh / 32 / 5 / 3
x265 [info]: Keyframe min / max : 24 / 24
x265 [info]: Rate Control / AQ-Strength / CUTree : CRF-11.9 / 1.0 / 1
x265 [info]: RDpenalty : 1
x265 [info]: Lookahead / bframes / badapt : 40 / 8 / 2
x265 [info]: b-pyramid / weightp / refs : 1 / 1 / 4
x265 [info]: tools: rect amp esd rd=4 lft sao-lcu sign-hide

МедиаИнфо

General
Complete name : Krasavitsa.I.Chudovishhe.Chudesnoe.Rozhdestvo.1997.BDRip.720p.mkv
Format : Matroska
File size : 2.05 GiB
Duration : 1h 10mn
Overall bit rate : 4 147 Kbps
Encoded date : UTC 2014-01-04 08:36:15
Writing application : mkvmerge v6.6.0 ('The Edge Of The In Between') built on Dec 1 2013 17:55:00
Writing library : libebml v1.3.0 + libmatroska v1.4.1
Video
ID : 1
Format : V_MPEGH/ISO/HEVC
Codec ID : V_MPEGH/ISO/HEVC
Duration : 1h 10mn
Bit rate : 1 697 Kbps
Width : 1 280 pixels
Height : 720 pixels
Display aspect ratio : 16:9
Frame rate : 23.976 fps
Bits/(Pixel*Frame) : 0.077
Stream size : 858 MiB (41%)
Audio #1
ID : 2
Format : AC-3
Format/Info : Audio Coding 3
Mode extension : CM (complete main)
Codec ID : A_AC3
Duration : 1h 10mn
Bit rate mode : Constant
Bit rate : 192 Kbps
Channel(s) : 2 channels
Channel positions : Front: L R
Sampling rate : 48.0 KHz
Bit depth : 16 bits
Stream size : 97.1 MiB (5%)
Title : Дубляж | "Невафильм"
Language : Russian
Audio #2
ID : 3
Format : AC-3
Format/Info : Audio Coding 3
Mode extension : CM (complete main)
Codec ID : A_AC3
Duration : 1h 10mn
Bit rate mode : Constant
Bit rate : 448 Kbps
Channel(s) : 6 channels
Channel positions : Front: L C R, Side: L R, LFE
Sampling rate : 48.0 KHz
Bit depth : 16 bits
Stream size : 227 MiB (11%)
Title : Многоголосый закадровый
Language : Russian
Audio #3
ID : 4
Format : AC-3
Format/Info : Audio Coding 3
Mode extension : CM (complete main)
Codec ID : A_AC3
Duration : 1h 10mn
Bit rate mode : Constant
Bit rate : 448 Kbps
Channel(s) : 6 channels
Channel positions : Front: L C R, Side: L R, LFE
Sampling rate : 48.0 KHz
Bit depth : 16 bits
Stream size : 227 MiB (11%)
Title : AVO | Юрий Живов
Language : Russian
Audio #4
ID : 5
Format : AC-3
Format/Info : Audio Coding 3
Mode extension : CM (complete main)
Codec ID : A_AC3
Duration : 1h 10mn
Bit rate mode : Constant
Bit rate : 448 Kbps
Channel(s) : 6 channels
Channel positions : Front: L C R, Side: L R, LFE
Sampling rate : 48.0 KHz
Bit depth : 16 bits
Stream size : 227 MiB (11%)
Title : AVO | Александр Кашкин
Language : Russian
Audio #5
ID : 6
Format : AC-3
Format/Info : Audio Coding 3
Mode extension : CM (complete main)
Codec ID : A_AC3
Duration : 1h 10mn
Bit rate mode : Constant
Bit rate : 192 Kbps
Channel(s) : 2 channels
Channel positions : Front: L R
Sampling rate : 48.0 KHz
Bit depth : 16 bits
Stream size : 97.1 MiB (5%)
Title : AVO | Николай "Антонов" [VHS Hi-Fi]
Language : Russian
Audio #6
ID : 7
Format : AC-3
Format/Info : Audio Coding 3
Mode extension : CM (complete main)
Codec ID : A_AC3
Duration : 1h 10mn
Bit rate mode : Constant
Bit rate : 640 Kbps
Channel(s) : 6 channels
Channel positions : Front: L C R, Side: L R, LFE
Sampling rate : 48.0 KHz
Bit depth : 16 bits
Stream size : 324 MiB (15%)
Text #1
ID : 8
Format : UTF-8
Codec ID : S_TEXT/UTF8
Codec ID/Info : UTF-8 Plain Text
Language : Russian
Text #2
ID : 9
Format : UTF-8
Codec ID : S_TEXT/UTF8
Codec ID/Info : UTF-8 Plain Text
Title : SDH
Menu
00:00:00.000 : en:01. Opening Credits / Remembering The Past
00:04:25.306 : en:02. A Date To Skate
00:10:17.158 : en:03. Belle's Gift
00:14:17.523 : en:04. Planning For Christmas
00:23:21.608 : en:05. The Curse Of The Beast
00:26:11.236 : en:06. F Yule Log Wish
00:29:25.263 : en:07. The Beast's Dilemma
00:33:53.156 : en:08. A Perfect Tree
00:39:17.563 : en:09. Where's Belle?
00:45:54.418 : en:10. The Black Forest
00:51:39.596 : en:11. A Gift Of Hope Brings Revenge
01:03:30.765 : en:12. Christmas At Last / End Credits

Скриншоты

Релиз группы:

Что такое HEVC и как его смотреть?

Что такое HEVC
H.265/HEVC (High Efficiency Video Coding) - это новый стандарт кодирования видео.
Стандарт H.265/HEVC является логическим продолжением стандарта H.264/AVC (Advanced Video Coding), и харакетризуется более эффективными алгоритмами сжатия, а также поддержкой высокого разрешения вплоть до 8K UHD (8192x4320).
Первая версия стандарта H.265 была опубликована в начале 2013 года.

Как смотреть HEVC
Любителям решения из коробки - установить последнюю версию Media Player Classic - Black Edition (MPC-BE) или VLC media player
Любителям WMP и других плееров, использующих по умолчанию для воспроизведения системные кодеки+сплитеры - установить K-Lite Codec Pack версии 10.1.0 и выше.
Любимые плееры, не использующии по умолчанию для воспроизведения системные кодеки+сплитеры, нужно перенастроить на использование оных.
Яндекс.Метрика
Рейтинг@Mail.ru