Процесс. Что губит российское образование? (31.08.2016) SATRip

 

Создавать темы 02-Сен-2016 03:38

- Процесс. Что губит российское образование? (31.08.2016) SATRip - Телекомпания: ОАО «ТРК ВС РФ «ЗВЕЗДА
Жанр: Телепередача
Ведущие: Надана Фридрихсон, Николай Петров
Описание:Кто виноват в той гибельной ситуации, которая сложилась в российском среднем и высшем образовании? Как решить проблему оттока квалифицированных специалистов за рубеж? И нужно ли возвращать в учебные заведения воспитательные функции и идеологию?
Николай Петров с помощью своих свидетелей попытается доказать, что западные политики по предварительному сговору с отечественными либерал-реформаторами навязали России чуждую ей систему образования. Советское наследие средней и высшей школы было целенаправленно уничтожено, а вместо него выстроена модель, ведущая к деградации образовательного уровня наших сограждан.
Надана Фридрихсон, опираясь на позиции своих свидетелей и экспертов, попробует убедить оппонента, что советская система обучения в школах и подготовки специалистов в вузах уже не отвечала реалиям и потребностям современной России. А все проблемы образования – следствие некомпетентности чиновников, которые реформировали эту отрасль. Ни о каком «заговоре коварного Запада» речь идти не может. А будущее образования в России – в разумном совмещении исторических традиций и современных, проверенных мировой практикой методов.
Продолжительность: 01:13:17
Качество видео: SATRip
Видео: Xvid, 720x400, ~1599 Кбит/сек
Аудио: AC3, 2 ch, 192 Кбит/сек, CBR

Доп.Информация:

Общее
Полное имя                               : F:\видео\фильмы\Процесс\Процесс. (2016.08.31) SATRip.avi
Формат                                   : AVI
Формат/Информация                        : Audio Video Interleave
Размер файла                             : 947 Мбайт
Продолжительность                        : 1 ч. 13 м.
Общий поток                              : 1801 Кбит/сек
Программа кодирования                    : VirtualDubMod 1.5.10.3 | [url=http://www.virtualdub-fr.org]www.virtualdub-fr.org[/url] || (build 2550/release)
Библиотека кодирования                   : VirtualDubMod build 2550/release
Видео
Идентификатор                            : 0
Формат                                   : MPEG-4 Visual
Профиль формата                          : Advanced [email protected]
Параметр BVOP формата                    : 1
Параметр QPel формата                    : Нет
Параметр GMC формата                     : Без точки перехода
Параметр матрицы формата                 : Выборочная
Идентификатор кодека                     : XVID
Идентификатор кодека/Подсказка           : XviD
Продолжительность                        : 1 ч. 13 м.
Битрейт                                  : 1599 Кбит/сек
Ширина                                   : 720 пикселей
Высота                                   : 400 пикселей
Соотношение сторон                       : 16:9
Частота кадров                           : 25,000 кадров/сек
Цветовое пространство                    : YUV
Субдискретизация насыщенности            : 4:2:0
Битовая глубина                          : 8 бит
Тип развёртки                            : Прогрессивная
Метод сжатия                             : С потерями
Бит/(Пиксели*Кадры)                      : 0.222
Размер потока                            : 841 Мбайт (89%)
Библиотека кодирования                   : XviD 73
Аудио
Идентификатор                            : 1
Формат                                   : AC-3
Формат/Информация                        : Audio Coding 3
Расширение режима                        : CM (complete main)
Параметр Endianness формата              : Big
Идентификатор кодека                     : 2000
Продолжительность                        : 1 ч. 13 м.
Вид битрейта                             : Постоянный
Битрейт                                  : 192 Кбит/сек
Каналы                                   : 2 канала
Расположение каналов                     : Front: L R
Частота                                  : 48,0 КГц
Частота кадров                           : 31,250 кадров/сек (1536 spf)
Метод сжатия                             : С потерями
Размер потока                            : 101 Мбайт (11%)
Выравнивание                             : Разделение по промежуткам
Продолжительность промежутка             : 40  мс. (1,00 видеокадр)
Время предзагрузки промежутка            : 500  мс.
Скриншоты:
Время раздачи: 24/7 (до появления первых 3-5 скачавших)
Яндекс.Метрика
Рейтинг@Mail.ru