Русские снайперы. 100 лет меткости (2016) SATRip (4 серии из 4)

 

Создавать темы 02-Сен-2016 03:36

- Русские снайперы. 100 лет меткости (2016) SATRip (4 серии из 4) - Телекомпания: Россия, ОАО «ТРК ВС РФ «ЗВЕЗДА»
Жанр: Документальный, война, история
Описание:
Документальный цикл посвящен истории развития снайперского дела в России и СССР.
1915 год. Первая мировая война в разгаре. Стороны массово применяют артиллерию и пулеметы. Но наибольшие потери войска несут от… снайперского огня. И в первую очередь в офицерском составе. Вскоре выяснилось, что это не случайность—за офицерами вели настоящую охоту немецкие снайперы. Против немецких сверхметких стрелков использовали артиллерию, пулеметы и даже авиацию. Однако самым действенным средством против снайпера стал другой, еще более подготовленный снайпер.
По-настоящему массовая русская школа подготовки снайперов развернется во времена Рабоче-Крестьянской Красной Армии. Это время назовут золотым периодом метких стрелков. И не только в армии. В распоряжении рабочей молодежи окажется большое количество специальных тиров Осоавиахима, лучшие оптические прицелы отечественного производства и особый нагрудный знак «Ворошиловский стрелок». Уже к началу Второй мировой войны советская снайперская школа получит статус одной из лучших в мире.
Релиз от: alf62
БОЛЬШОЕ СПАСИБО Barents, за предоставленный постер!
Продолжительность: 4 х ~ 00:37:50
Качество видео: SATRip [thumb]https://www.sendspace.com/file/xu1es5[/thumb]
Видео: Xvid, 720х400, ~1800 Kbps
Аудио: AC3, 2 ch, 192 Kbps, CBR

Доп.Информация:

1-я серия
Русская армия не сразу пришла к необходимости организации снайперского дела. Тем не менее, в 1914 году генерал Брусилов уже начал создавать свои команды снайперов. Во время знаменитого прорыва они получили специальную задачу. Первый отличившийся - рядовой Пензенского полка Бекетов. Герой получил Георгия, а снайперами с этого времени стремились стать многие.
2-я серия
С началом Великой Отечественной войны тактика снайперов быстро совершенствовалась. Именно в это время появились такие понятия как маскировка, ложные позиции, засада, действия снайперских пар. Фильм расскажет об уникальном случае подготовки снайперов в короткие сроки, а также о появлении первой советской автоматической винтовки СВТ-40 и триумфальном возвращении «Мосинки». В первые годы войны прославились снайперы Владимир Пчелинцев и легендарная Людмила Павличенко.
3-я серия
В ходе Великой Отечественной войны, помимо индивидуального снайпинга, в Советской армии применили новый вид боевых действий – массированный снайперский огонь. Одним из тех, кто на деле внедрял новую тактику, был легендарный снайпер Василий Зайцев. Несмотря на то, что его имя на слуху, мало кому известно, что в Сталинграде он прежде всего занимался внедрением тактики массированного снайперского огня и противодействия немецким снайперам.
4-я серия
Во время боевых действий в Афганистане советские подразделения столкнулись с массовым прицельным огнем моджахедов, вооруженных винтовками «бур». Советское командование противопоставило им свой снайперский огонь. Обучение советских стрелков наладили в горном центре подготовки «Шерабад» Туркестанского военного округа. Штатным оружием советского снайпера являлась специальная винтовка СВД с оптическим прицелом ПСО-1. На дистанции в километр опытный стрелок укладывал пули в тридцатисантиметровый круг. Одним из тех, кто видел своих врагов в лицо даже на таком расстоянии, был Михаил Князев.

МедиаИнформ:

Русские.снайперы.2016.XviD.SATRip.alf62\Русские.снайперы.(1.серия).2016.XviD.SATRip.alf62.avi
Формат                                   : AVI
Формат/Информация                        : Audio Video Interleave
Размер файла                             : 542 Мбайт
Продолжительность                        : 37 м.
Общий поток                              : 2001 Кбит/сек
Программа кодирования                    : VirtualDubMod 1.5.10.3 | [url=http://www.virtualdub-fr.org]www.virtualdub-fr.org[/url] || (build 2550/release)
Библиотека кодирования                   : VirtualDubMod build 2550/release
Видео
Идентификатор                            : 0
Формат                                   : MPEG-4 Visual
Профиль формата                          : Advanced [email protected]
Параметр BVOP формата                    : 1
Параметр QPel формата                    : Нет
Параметр GMC формата                     : Без точки перехода
Параметр матрицы формата                 : Выборочная
Идентификатор кодека                     : XVID
Идентификатор кодека/Подсказка           : XviD
Продолжительность                        : 37 м.
Битрейт                                  : 1800 Кбит/сек
Ширина                                   : 720 пикселей
Высота                                   : 400 пикселей
Соотношение сторон                       : 16:9
Частота кадров                           : 25,000 кадров/сек
Цветовое пространство                    : YUV
Субдискретизация насыщенности            : 4:2:0
Битовая глубина                          : 8 бит
Тип развёртки                            : Прогрессивная
Метод сжатия                             : С потерями
Бит/(Пиксели*Кадры)                      : 0.250
Размер потока                            : 487 Мбайт (90%)
Библиотека кодирования                   : XviD 73
Аудио
Идентификатор                            : 1
Формат                                   : AC-3
Формат/Информация                        : Audio Coding 3
Расширение режима                        : CM (complete main)
Параметр Endianness формата              : Big
Идентификатор кодека                     : 2000
Продолжительность                        : 37 м.
Вид битрейта                             : Постоянный
Битрейт                                  : 192 Кбит/сек
Каналы                                   : 2 канала
Расположение каналов                     : Front: L R
Частота                                  : 48,0 КГц
Битовая глубина                          : 16 бит
Метод сжатия                             : С потерями
Размер потока                            : 52,0 Мбайт (10%)
Выравнивание                             : Разделение по промежуткам
Продолжительность промежутка             : 40  мс. (1,00 видеокадр)
Время предзагрузки промежутка            : 500  мс.
Скриншоты:

Скриншоты:

Время раздачи: до появления первых 3-5 скачавших
Яндекс.Метрика
Рейтинг@Mail.ru