[ Сегодня на трекере фрилич! Идет свободное скачивание без начисления Download ]

Пацанки (01.09.2016) SATRip

 

Создавать темы 02-Сен-2016 03:33

- Пацанки (01.09.2016) SATRip - Телекомпания: Пятница
Жанр: Телепередача
Описание:В течение нескольких месяцев на глазах зрителей будет происходить смелый социальный эксперимент. Молодые девушки из провинции, чьи жизни на бешеной скорости катятся в пропасть, изо всех сил постараются изменить свою судьбу. Первое реалити про напряженную работу над собой начинается прямо сейчас. Героинями проекта стали одиннадцать девушек. Каждая из них – пацанка и оторва, лишенная родительской любви, понимания окружающих, заложница неблагополучного окружения и образа жизни. Они озлоблены на мир и, в первую очередь, на себя. Они слабы или слишком ленивы, чтобы встать на путь исправления самостоятельно. Но каждая из героинь понимает – дальше так жить нельзя.Продолжительность: 01:44:42
Качество видео: SATRip
Видео: Xvid, 720x400, ~1800 Кбит/сек
Аудио: MP3, 2 ch, 128 Кбит/сек

Доп.Информация:

Общее
Полное имя                               : F:\видео\фильмы\Пацанки\Пацанки  (2016.09.01) SATRip.avi
Формат                                   : AVI
Формат/Информация                        : Audio Video Interleave
Размер файла                             : 1,42 Гбайт
Продолжительность                        : 1 ч. 44 м.
Общий поток                              : 1937 Кбит/сек
Программа кодирования                    : VirtualDubMod 1.5.10.3 | [url=http://www.virtualdub-fr.org]www.virtualdub-fr.org[/url] || (build 2550/release)
Библиотека кодирования                   : VirtualDub build 29808/release
Видео
Идентификатор                            : 0
Формат                                   : MPEG-4 Visual
Профиль формата                          : Advanced [email protected]
Параметр BVOP формата                    : 2
Параметр QPel формата                    : Нет
Параметр GMC формата                     : Без точки перехода
Параметр матрицы формата                 : Default (H.263)
Идентификатор кодека                     : XVID
Идентификатор кодека/Подсказка           : XviD
Продолжительность                        : 1 ч. 44 м.
Битрейт                                  : 1800 Кбит/сек
Ширина                                   : 720 пикселей
Высота                                   : 400 пикселей
Соотношение сторон                       : 16:9
Частота кадров                           : 25,000 кадров/сек
Цветовое пространство                    : YUV
Субдискретизация насыщенности            : 4:2:0
Битовая глубина                          : 8 бит
Тип развёртки                            : Прогрессивная
Метод сжатия                             : С потерями
Бит/(Пиксели*Кадры)                      : 0.250
Размер потока                            : 1,32 Гбайт (93%)
Библиотека кодирования                   : XviD 1.2.1 (UTC 2008-12-04)
Аудио
Идентификатор                            : 1
Формат                                   : MPEG Audio
Версия формата                           : Version 1
Профиль формата                          : Layer 3
Режим                                    : Joint stereo
Расширение режима                        : MS Stereo
Идентификатор кодека                     : 55
Идентификатор кодека/Подсказка           : MP3
Продолжительность                        : 1 ч. 44 м.
Вид битрейта                             : Постоянный
Битрейт                                  : 128 Кбит/сек
Каналы                                   : 2 канала
Частота                                  : 48,0 КГц
Метод сжатия                             : С потерями
Размер потока                            : 96,0 Мбайт (7%)
Выравнивание                             : Соединение по промежуткам
Продолжительность промежутка             : 40  мс. (1,00 видеокадр)
Время предзагрузки промежутка            : 504  мс.
Библиотека кодирования                   : LAME3.99r
Настройки программы                      : -m j -V 4 -q 2 -lowpass 17 -b 128
Скриншоты:
Время раздачи: 24/7 (до появления первых 3-5 скачавших)
Яндекс.Метрика
Рейтинг@Mail.ru