Сексмиссия / Новые Амазонки / Seksmisja (1983,фантастика, комедия, приключения HDTVRip) от New-Team

 

Создавать темы 04-Янв-2014 17:26

Страна: Польша
Производство: Zespol Filmowy "Kadr"
Жанр: фантастика, комедия, приключения
Год выпуска: 1983
Продолжительность: 01:54:34
Перевод: Профессиональный (многоголосый закадровый)
Оригинальная аудиодорожка: нет
Cубтитры: нет
Режиссер: Юлиуш Махульский / Juliusz Machulski
В ролях:
Ольгерд Лукашевич, Ежи Штур, Божена Стрыйкувна, Богуслава Павелец, Ханна Станкувна, Беата Тышкевич, Рышарда Ханин, Барбара Людвижанка, Мирослава Мархелюк, Ханна Микуць...
Описание:
Альберт и Максимилиан соглашаются стать участниками эксперимента профессора Куппельвайзера: они, двое молодых мужчин лет 30-ти, в интересах науки должны быть заморожены сроком на 3 года. Однако за время, проведенное ими в специальных капсулах, на Земле многое изменилось, и потому Альбертика с Максом разморозили не через три года, а через полвека с лишним. В 2044 году. Когда «вымерли» все мужчины, и «других самцов», кроме парочки размороженных, больше нигде не осталось.
«Амазонки 21-го века» живут в глубоком подземелье, благополучно разрешив проблему размножения без оплодотворения, и не нуждаются в присутствии особей мужского пола. С риском для собственной жизни Альберт и Макс вынуждены приступить к выполнению «сексмиссии»…
Исходник: HDTV 1080i
Тип релиза: HDTVRip
Контейнер: AVI
Видео: 624x352 (16:9), 25 fps, XviD ~ 774 kbps avg, 0.141 bit/pixel
Аудио: 48 kHz, MP3 2.0, 128 kbps

MediaInfo

Общее
Полное имя : Seksmisja.1983.HDTVRip-745_[New-team]_by_AVP_Studio.avi
Формат : AVI
Формат/Информация : Audio Video Interleave
Размер файла : 747 Мбайт
Продолжительность : 1 ч. 54 м.
Общий поток : 911 Кбит/сек
Программа кодирования : VirtualDubModRus 1.5.10.2 (build 2542/release)
Библиотека кодирования : VirtualDubMod build 2542/release
Видео
Идентификатор : 0
Формат : MPEG-4 Visual
Профиль формата : Advanced [email protected]
Параметр BVOP формата : 1
Параметр QPel формата : Нет
Параметр GMC формата : Без точки перехода
Параметр матрицы формата : Выборочная
Идентификатор кодека : XVID
Идентификатор кодека/Подсказка : XviD
Продолжительность : 1 ч. 54 м.
Битрейт : 774 Кбит/сек
Ширина : 624 пикселя
Высота : 352 пикселя
Соотношение сторон : 16:9
Частота кадров : 25,000 кадров/сек
Цветовое пространство : YUV
Субдискретизация насыщенности : 4:2:0
Битовая глубина : 8 бит
Тип развёртки : Прогрессивная
Метод сжатия : С потерями
Бит/(Пиксели*Кадры) : 0.141
Размер потока : 634 Мбайт (85%)
Библиотека кодирования : XviD 73
Аудио
Идентификатор : 1
Формат : MPEG Audio
Версия формата : Version 1
Профиль формата : Layer 3
Идентификатор кодека : 55
Идентификатор кодека/Подсказка : MP3
Продолжительность : 1 ч. 54 м.
Вид битрейта : Постоянный
Битрейт : 128 Кбит/сек
Каналы : 2 канала
Частота : 48,0 КГц
Метод сжатия : С потерями
Размер потока : 105 Мбайт (14%)
Выравнивание : Соединение по промежуткам
Продолжительность промежутка : 40 мс. (1,00 видеокадр)
Время предзагрузки промежутка : 504 мс.
Библиотека кодирования : LAME3.99r
Настройки программы : -m s -V 4 -q 2 -lowpass 17 -b 128

Скриншоты

Интересные факты

Роль Её Превосходительства исполнивший её комедийный актёр театра и кино Веслав Михниковский посвятил театральному режиссёру Эрвину Аксеру.
Эпиграфом к фильму взят афоризм польского писателя, драматурга и эссеиста Славомира Мрожека: «Завтра — это сегодня, только завтра» (польск. Jutro to dziś — tyle, że jutro).
Выбранное датой начала сюжета 9 августа — день рождения тогдашней жены Юлиуша Махульского Божены Стрыйкувны, игравшей в этом фильме роль Ламии.
В фильме присутствуют отсылки к фильмам «Ва-банк» и «Ва-банк 2»:
1. В отображаемом на экране списке пансионерок «Приюта заслуженной старости», перед фамилией Юлии Новак (с которой будет встречаться Ламия), отображается: «Квинто, Элла — 65». Возглавляет список фамилия «Одерматт, Урса — 70»; третья сверху фамилия «Ковальски, Ана — 69». Последняя фамилия — «Mac choolskee (=Махульский), Аста — 64».
2. Когда Макс с Альбертом сбегают из зала суда, после этажа с бассейном, они наугад попадают на какой-то закрытый этаж, на вход в который, очевидно, нужно иметь специальный допуск. Прямо напротив раскрывшихся дверей лифта они видят полосатый шлагбаум и девушку в защитной мотоциклетной каске и перчатках, которая говорит им по-немецки: «Добрый день, паспортный контроль. Прошу Ваши документы».
3. После этого в холле они встречают чёрнокожую девушку с далматином. На её вопрос про отель (который она задает по-польски), Макс отвечает ей по-немецки — той же фразой, которую говорит кассир швейцарского банка, когда Квинто предъявляет кассиру чек, подписанный Крамером: «Ein moment, bitte».
В качестве дома второй половины XX века, в котором оказываются главные герои в конце фильма, была использована та же загородная вилла, со многими вещами из той же обстановки, что и в чуть ранее снятом фильме «Ва-банк 2» (на которой оказываются Крамер со Штыцем, когда их якобы «переправляют» в Швейцарию). В частности, комната на втором этаже и кровать, на которой Макс предлагает Ламии «традиционный контакт», — та же самая, на которой пьяный Крамер ночью спит и наутро обнаруживает себя прикованым к начальнику тюрьмы. А комната с подиумом, в которой Макс и Альберт ловят «Её Превосходительство», равно как и рыжий диван, на котором они перед этим сидят и курят, — тот же самый, на котором спит пьяный Штыц, убегая наутро через окно. Это строение сохранилось до сегодняшнего дня и находится в Польше, город Лодзь, район Леба, по адресу: Łódź, ul. Raduńska, 19.
В газете, найденной Максом и Альбертом в сапогах, на польском языке только заголовки: сами статьи — по-французски.
В 2012 и 2013 годах на разных каналах российского телевидения стали демонстрироваться версии фильма, урезанные даже в большей степени, нежели в советском кинопрокате. Несмотря на показ фильма в ночное время, из него удаляются практически все сцены, в которых фигурируют обнажённые женщины.
Яндекс.Метрика
Рейтинг@Mail.ru