Горец / Highlander / Сезон: 1 / Серии: 22 из 22 (Денни Берри / Dennis Berry, ...) [1992 г., фантастика, фэнтези, боевик, детектив, приключения, TVRip] MVO

 

Создавать темы 30-Авг-2016 03:38

-Горец / Highlander-- Производство: Канада, Франция, Davis-Panzer Productions, Filmline International Inc., Gaumont Télévision, ...
Жанр: фантастика, фэнтези, боевик, детектив, приключения
Год выпуска: 1992 г.
Продолжительность: 00:48:40Мировая премьера: 3 октября 1992
Дата выхода DVD: 26 сентября 2007, «Кармен Видео»
Перевод: Профессиональный (многоголосый, закадровый)
Режиссер: Денни Берри / Dennis Berry, ...-В ролях: Адриан Пол, Стэн Кирш, Джим Бернс, Александра Вандернот, Питер Уингфилд, Филип Акин, Лиза Ховард, Питер Хадсон-Описание: Его зовут Дункан Маклауд. Он родился в 1592 году в горах Шотландии и живет по сей день. Он бессмертен. За 400 лет кем он только ни был: и воином, и любовником, и путешественником.
Ему постоянно приходилось сражаться с другими бессмертными, восставшими из мертвых, и убивать их, ибо победитель должен был отрубить голову побежденному, и тогда к нему переходила вся сила поверженного.-
Качество видео: TVRip
Контейнер: AVI
Видео кодек: XviD
Аудио кодек: MP3
Видео: 512x384 (1.33:1), 23.976 fps, XviD 1.1 beta 2 (build 39) ~865 kbps avg, 0.18 bit/pixel
Аудио: 48 kHz, MPEG Layer 3, 2 ch, ~128.00 kbps avg
Cубтитры: отсутствуют

Награды

Сатурн, 2003 год
Номинации (1):
Лучшее DVD-издание телепрограммы
Сатурн, 1997 год
Номинации (1):
Лучший жанровый телесериал, сделанный для кабельного телевидения

Рецензия

Дункан Маклауд, или меч, который достали из шорт!Все детство прошло под этот сериал — его смотрели, им восхищались, им грезили. Эдриан Пол стал героем мальчишек из моего детства. Мы играли в горца и каждый наперечет представлялся Дунканом Маклаудом, который родился 400 лет назад.Каждую серию ждали с нетерпением и первым делом, приходя из школы, бежали смотреть сериал. Великолепные бои на мечах, красивые истории, красивые женщины и великолепный Эдриан Пол сделали этот сериал культовым.Этот сериал обошел по популярности даже полнометражный фильм и когда звучало слово «горец» — все вспоминали не Кристофера Ламберта, а вспоминали Э. Пола.Замечательная сказка из детства, которая помогла сформировать в то время мальчишкам понятие —Моя оценка — 10 из 10

Media Info

Общее
Полное имя : J:\Горец\GORETS.S01.[pirat.ca]\Gorec.1x01.Sbor.avi
Формат : AVI
Формат/Информация : Audio Video Interleave
Размер файла : 350 Мбайт
Продолжительность : 48 м.
Общий поток : 1003 Кбит/сек
Название фильма : Gorec.1x01.Sbor
Программа кодирования : VirtualDubMod 1.5.10.1 (build 2439/release)Видео
Идентификатор : 0
Формат : MPEG-4 Visual
Профиль формата : [email protected]/* */
Параметр BVOP формата : 2
Параметр QPel формата : Нет
Параметр GMC формата : Без точки перехода
Параметр матрицы формата : Default (H.263)
Идентификатор кодека : XVID
Идентификатор кодека/Подсказка : XviD
Продолжительность : 48 м.
Битрейт : 866 Кбит/сек
Ширина : 512 пикселей
Высота : 384 пикселя
Соотношение сторон : 4:3
Частота кадров : 23,976 (23976/1000) кадра/сек
Цветовое пространство : YUV
Субдискретизация насыщенности : 4:2:0
Битовая глубина : 8 бит
Тип развёртки : Прогрессивная
Метод сжатия : С потерями
Бит/(Пиксели*Кадры) : 0.184
Размер потока : 302 Мбайт (86%)
Библиотека кодирования : XviD 1.1.0 Beta2 (UTC 2005-04-04)Аудио
Идентификатор : 1
Формат : MPEG Audio
Версия формата : Version 1
Профиль формата : Layer 3
Режим : Dual mono
Идентификатор кодека : 55
Идентификатор кодека/Подсказка : MP3
Продолжительность : 48 м.
Вид битрейта : Постоянный
Битрейт : 128 Кбит/сек
Каналы : 2 канала
Частота : 48,0 КГц
Метод сжатия : С потерями
Размер потока : 44,7 Мбайт (13%)
Выравнивание : Соединение по промежуткам
Продолжительность промежутка : 42 мс. (1,00 видеокадр)
Время предзагрузки промежутка : 504 мс.

Скриншот c названием фильма

Скриншоты

-Трейлер
Яндекс.Метрика
Рейтинг@Mail.ru