Человек внутри меня / Enakkul Oruvan (Прасад Рамар / Prasad Ramar) [2015 г., триллер, DVDRip] DVO + Sub (Rus, только на песни)

 

Создавать темы 30-Авг-2016 03:30

-Человек внутри меня / Enakkul Oruvan-- Производство: Индия
Год выпуска: 2015 г.
Жанр: триллер
Продолжительность: 02:07:54Мировая премьера: 5 марта 2015
Перевод: Любительский (двухголосый, закадровый) [Давид Петросян и Маргарита Сахно]
Режиссер: Прасад Рамар / Prasad Ramar-В ролях: Сиддхартх, Дипа Саннидхи, Аадукалам Нарен, Аджай Ратнам, Шрушти Данге-Описание: Две абсолютно разные жизни — кинозвезды и проводника старого кинотеатра. И в той и в другой есть свои радости, печали, любовь… Но все это — тонкое и сложное переплетение сна и реальности одного и того же человека. Где реальность, а где сон, ему и самому уже не разобраться…-
Качество видео: DVDRip
Контейнер: AVI
Видео кодек: XviD
Аудио кодек: AC3
Видео: 720x480 (1.50:1), 25 fps, XviD build 64 ~1505 kbps avg, 0.17 bit/pixel
Аудио: 48 kHz, AC3 Dolby Digital, 2/0 (L,R) ch, ~192 kbps
Cубтитры: русские
Формат субтитров: hardsub (неотключаемые)
Доп. информация о субтитрах: только на песни

Доп. информация

Enakkul Oruvan - тамильский ремейк каннада-хита Павана Кумара - Lucia (2013). Музыка - Сантош Нараянан. Оператор - Гопи Амарнатх.

Media Info

Общее
Полное имя : G:\Человек внутри меня\Chelovek vnutri menya.2015.DVDRip.[pirat.ca].avi
Формат : AVI
Формат/Информация : Audio Video Interleave
Размер файла : 1,53 Гбайт
Продолжительность : 2 ч. 7 м.
Общий поток : 1707 Кбит/сек
Название фильма : Chelovek vnutri menya.2015.DVDRip.[pirat.ca]
Программа кодирования : VirtualDubMod 1.5.10.3 | www.virtualdub-fr.org || (build 2550/release)Видео
Идентификатор : 0
Формат : xvid
Идентификатор кодека : xvid
Продолжительность : 2 ч. 7 м.
Битрейт : 1506 Кбит/сек
Ширина : 720 пикселей
Высота : 480 пикселей
Соотношение сторон : 3:2
Частота кадров : 25,000 кадров/сек
Бит/(Пиксели*Кадры) : 0.174
Размер потока : 1,35 Гбайт (88%)Аудио
Идентификатор : 1
Формат : AC-3
Формат/Информация : Audio Coding 3
Расширение режима : CM (complete main)
Параметр Endianness формата : Big
Идентификатор кодека : 2000
Продолжительность : 2 ч. 7 м.
Вид битрейта : Постоянный
Битрейт : 192 Кбит/сек
Каналы : 2 канала
Расположение каналов : Front: L R
Частота : 48,0 КГц
Частота кадров : 31,250 кадров/сек (1536 spf)
Метод сжатия : С потерями
Размер потока : 176 Мбайт (11%)
Выравнивание : Разделение по промежуткам
Продолжительность промежутка : 40 мс. (1,00 видеокадр)
Время предзагрузки промежутка : 500 мс.

Скриншот c названием фильма

Скриншоты

-Трейлер
Яндекс.Метрика
Рейтинг@Mail.ru