Пуленепробиваемый / Bulletproof Monk (Пол Хантер / Paul Hunter) [2003 г., фэнтези, боевик, комедия, BDRip-AVC, 720p] Dub [МОСФИЛЬМ-мастер 2003] + Sub (Rus)

 

Создавать темы 30-Авг-2016 03:21

-Пуленепробиваемый / Bulletproof Monk-- Производство: США, Канада, Cub Five Productions, Flypaper Press, Lakeshore Entertainment, Lion Rock Productions, Mosaic Media Group, Signpost Films, ...
Год выпуска: 2003 г.
Жанр: фэнтези, боевик, комедия
Продолжительность: 01:39:33Мировая премьера: 16 апреля 2003
Российская премьера: 16 июля 2003, «Централ Партнершип»
Дата выхода DVD: 21 августа 2004, «CP-Digital»
Перевод: Профессиональный (полное дублирование) [МОСФИЛЬМ-мастер 2003]
Режиссер: Пол Хантер / Paul Hunter-В ролях: Юнь-Фат Чоу, Шонн Уильям Скотт, Джейми Кинг, Карел Роден, Виктория Смерфит, Маркус Дж. Пирэ, Мако, Роджер Йуан, Шон Белл, Роб Арчер, Расселл Юэнь, Альберт Чунг, Керис Ан, Питер Снайдер-Описание: Монах — мастер боевых искусств, который охраняет могущественный древний свиток — таинственный артефакт, содержащий ключ к безграничной власти. Монаху нужно найти следующего хранителя свитка, и поиски приводят его в Америку. Согласно древнему пророчеству и к изумлению Монаха его преемником оказывается обаятельный хулиган по имени Кар.Пока Монах обучает Кара, как выполнять свою работу, этому невероятному дуэту приходится защищать свиток от одержимого жаждой власти человека, который гоняется за ним 60 лет.В суматохе невероятной акробатики, схваток с применением боевых искусств и остроумных шуток эта комическая странная парочка должна сделать всё, чтобы свиток не попал в руки злодея.-
Качество видео: BDRip-AVC
Контейнер: MKV
Стандарт разрешения: 720p
Видео кодек: MPEG4 AVC
Аудио кодек: AC3
Видео: 1280x544 (2.35:1), 4272 kbps, 23.976 fps
Аудио: AC-3, 6ch, 448kbps, 48,0 kHz
Cубтитры: русские
Формат субтитров: softsub (SRT)
Доп. информация о субтитрах: включаемые

Доп. информация

На роль Кара в «Пуленепробиваемом» пробовался Хит Леджер, но он отказался от участия в проекте ради съемок в фильме «Банда Келли» (2003).
Джейми Кинг сломала палец руки во время сьёмок, но не во время трюков — она споткнулась на лестнице, говоря по телефону.

Рецензия

«Летающий доширак»Ядреное кино, заряжает позитивом на 100 рентген!Гнусные нацисты получат свое, так как сегодня за нашу команду играют: Чоу «Азиатский Карлсон» Юнь-Фат, Стиффлер (в этот раз без матери) и мисс «Я такая крутая, что собираю окурки с пола с наркоманами в метро». Аккурат к ритуалу передачи сигаретной бумаги с секретами воздержания тибетских монахов, наш отряд «на треть из октябрят» выучил пару-тройку новых трюков, включая «полет МИ-24 над Афганистаном», что сносит бандюков на раз, а Cтиффлер даже успел выучить стиль «детскосадовского подражания экранным боёвкам».Но злодеи не дремлют: главгад бережно смазывает колеса инвалидной коляски маслом, главзлодтётка натягивает облегающую одежку, а толпы безмозглых амбалов ковыряют в носу. Дримтиму «оборванцев» определенно везёт со злодеями, пусть даже кое-кому приходится быть подвешенным голым на стене и выслушивать пошлые шутки про «азиатский» размер. Ну да ладно… Главное — победа!Фильм смотрим, те, кто смотрел пересматриваем.10 из 10

Media Info

Общее
Уникальный идентификатор : 171894727679116565080596567681651384559 (0x8151B867ACB785809D24DB0DFFAF20EF)
Полное имя : J:\Пуленепробиваемый монах\Puleneprobivaemyj monah.2003.BDRip-AVC.720p.[pirat.ca].mkv
Формат : Matroska
Версия формата : Version 2
Размер файла : 3,49 Гбайт
Продолжительность : 1 ч. 43 м.
Общий поток : 4816 Кбит/сек
Дата кодирования : UTC 2016-08-29 18:38:56
Программа кодирования : mkvmerge v5.3.0 ('I could have danced') built on Feb 9 2012 10:38:07
Библиотека кодирования : libebml v1.2.3 + libmatroska v1.3.0Видео
Идентификатор : 1
Формат : AVC
Формат/Информация : Advanced Video Codec
Профиль формата : [email protected]/* */
Параметр CABAC формата : Да
Параметр ReFrames формата : 9 кадров
Идентификатор кодека : V_MPEG4/ISO/AVC
Продолжительность : 1 ч. 43 м.
Битрейт : 4272 Кбит/сек
Ширина : 1280 пикселей
Высота : 544 пикселя
Соотношение сторон : 2,35:1
Соотношение сторон в оригинале : 2,35:1
Режим частоты кадров : Постоянный
Частота кадров : 23,976 (24000/1001) кадра/сек
Цветовое пространство : YUV
Субдискретизация насыщенности : 4:2:0
Битовая глубина : 8 бит
Тип развёртки : Прогрессивная
Бит/(Пиксели*Кадры) : 0.256
Размер потока : 3,10 Гбайт (89%)
Библиотека кодирования : x264 core 142 r2479kMod dd79a61
Настройки программы : cabac=1 / ref=9 / deblock=1:-1:-1 / analyse=0x3:0x133 / me=umh / subme=10 / psy=1 / fade_compensate=0.00 / psy_rd=1.00:0.15 / mixed_ref=1 / me_range=32 / chroma_me=1 / trellis=2 / 8x8dct=1 / cqm=0 / deadzone=21,11 / fast_pskip=0 / chroma_qp_offset=-3 / threads=3 / lookahead_threads=1 / sliced_threads=0 / nr=0 / decimate=1 / interlaced=0 / bluray_compat=0 / constrained_intra=0 / fgo=0 / bframes=5 / b_pyramid=2 / b_adapt=2 / b_bias=0 / direct=3 / weightb=1 / open_gop=0 / weightp=2 / keyint=240 / keyint_min=23 / scenecut=40 / intra_refresh=0 / rc=crf / mbtree=0 / crf=19.0000 / qcomp=0.60 / qpmin=0 / qpmax=69 / qpstep=4 / ip_ratio=1.40 / pb_ratio=1.30 / aq=1:1.00
Язык : English
Default : Да
Forced : Нет
Statistics Tags Issue : mkvmerge v7.5.0 ('Glass Culture') 64bit built on Jan 4 2015 16:48:44 2015-01-29 10:55:28 / mkvmerge v5.3.0 ('I could have danced') built on Feb 9 2012 10:38:07 2016-08-29 18:38:56
FromStats_BitRate : 4366514
FromStats_Duration : 01:43:44.218000000
FromStats_FrameCount : 149232
FromStats_StreamSize : 3397267079Аудио
Идентификатор : 2
Формат : AC-3
Формат/Информация : Audio Coding 3
Расширение режима : CM (complete main)
Параметр Endianness формата : Big
Идентификатор кодека : A_AC3
Продолжительность : 1 ч. 43 м.
Вид битрейта : Постоянный
Битрейт : 448 Кбит/сек
Каналы : 6 каналов
Расположение каналов : Front: L C R, Side: L R, LFE
Частота : 48,0 КГц
Частота кадров : 31,250 кадров/сек (1536 spf)
Метод сжатия : С потерями
Размер потока : 332 Мбайт (9%)
Заголовок : AC3 5.1 448 kbps: Дубляж
Язык : Russian
Default : Да
Forced : Нет
Statistics Tags Issue : mkvmerge v7.5.0 ('Glass Culture') 64bit built on Jan 4 2015 16:48:44 2015-01-29 10:55:28 / mkvmerge v5.3.0 ('I could have danced') built on Feb 9 2012 10:38:07 2016-08-29 18:38:56
FromStats_BitRate : 448000
FromStats_Duration : 01:43:40.704000000
FromStats_FrameCount : 194397
FromStats_StreamSize : 348359424Текст
Идентификатор : 3
Формат : UTF-8
Идентификатор кодека : S_TEXT/UTF8
Идентификатор кодека/Информация : UTF-8 Plain Text
Заголовок : R5
Язык : Russian
Default : Нет
Forced : Нет
Statistics Tags Issue : mkvmerge v7.5.0 ('Glass Culture') 64bit built on Jan 4 2015 16:48:44 2015-01-29 10:55:28 / mkvmerge v5.3.0 ('I could have danced') built on Feb 9 2012 10:38:07 2016-08-29 18:38:56
FromStats_BitRate : 61
FromStats_Duration : 01:36:53.856000000
FromStats_FrameCount : 715
FromStats_StreamSize : 44889Меню
00:00:00.000 : en:Main Title/Final Touch
00:02:43.330 : en:To Protect the Scroll...
00:05:59.609 : en:...From the Enemy
00:10:54.070 : en:Like Two...Two Approaching Trains
00:15:46.487 : en:Funktastic Businessman
00:18:10.881 : en:"He's Going to Lose"
00:23:36.707 : en:Worth Waiting For
00:24:47.861 : en:His Home Is His Palace
00:27:53.255 : en:Cantonese for 'Family'
00:31:51.868 : en:A Better, Purer World
00:35:36.509 : en:The Hot Dog Riddle
00:37:53.354 : en:Brave and Stupid
00:39:54.434 : en:Whose Fight Is It?
00:42:24.959 : en:Brothers in Waiting
00:47:28.095 : en:Unity of Opposites
00:49:48.527 : en:Aerial Attacks
00:54:03.365 : en:Truth of the Matter
00:56:58.624 : en:Asking Mr. Kojima
01:00:11.691 : en:Another 60 Years
01:03:30.306 : en:The Monk As Traitor
01:06:03.668 : en:Misdirection & Speed
01:10:10.540 : en:In the Palace of Jade
01:15:17.304 : en:Well-Armed Princess
01:16:35.007 : en:Every Last Letter
01:19:15.709 : en:"You Do Have Potential"
01:21:25.172 : en:Rejuvenated Evil
01:23:26.251 : en:Bad Girl Combat
01:24:43.620 : en:The Forece of Evil
01:29:25.151 : en:Last Chance to Change
01:31:36.116 : en:The Third Prophecy
01:35:31.351 : en:Inseparable
01:37:42.607 : en:End Credits

Скриншот c названием фильма

Скриншоты

-Трейлер
Яндекс.Метрика
Рейтинг@Mail.ru