Черепашки-ниндзя 2 / Teenage Mutant Ninja Turtles: Out of the Shadows (2016) WEB-DLRip

 

Создавать темы 29-Авг-2016 23:11

- Черепашки-ниндзя 2 / Teenage Mutant Ninja Turtles: Out of the Shadows (2016) WEB-DLRip- Производство: США, Гонконг, Китай, Канада
Жанр: Фантастика, Боевик, Комедия, Приключения
Режиссер: Дэйв Грин
Продюсер: Эндрю Форм, Брэдли Фуллер, Скотт Медник
Актеры: Меган Фокс, Уилл Арнетт, Лора Линни, Стивен Амелл, Ноэль Фишер, Джереми Ховард, Пит Пложек, Алан Ричсон, Тайлер Перри, Брайан Ти
Описание:
Долгое время черепашки-ниндзя скрывались от людей в лабиринтах городской канализации. На протяжении нескольких лет учитель Сплинтер обучал их боевым искусствам и прививал им чувство справедливости. В один прекрасный момент им пришлось подняться наверх, чтобы спасти Нью-Йорк от Шредера, предводителя Клана Футов, захватившего власть в Нью-Йорке. Вместе с отважным репортером Эйприл и ее оператором Верном, бесстрашные воины смогли одержать победу и очистить любимый город от преступности. Леонардо, Микеланджело, Рафаэль и Донателло нашли свое предназначение в этом мире и стали защитниками своего города. Они навели порядок в Нью-Йорке и с чистой совестью могли отправиться на покой, но однажды им вновь пришлось столкнуться с могущественным врагом, угрожающим их городу.
Возраст: 6+ (зрителям, достигшим 6 лет)
Рейтинг MPAA: PG-13 (детям до 13 лет просмотр нежелателен)
Дата мировой премьеры: 22 мая 2016
Дата российской премьеры: 2 июня 2016
Релиз: MegaPeer
Продолжительность: 01:52:15
Качество видео: WEB-DLRip http://multi-up.com/1115680
Перевод: Дублированный (iTunes)
Субтитры: Русские форсированные - (отдельно)
Видео: XviD, 720x304, 1473 Kbps
Аудио: AC3, 6 ch, 384 kbps

MI

Общее
Полное имя                               : F:\Teenage.Mutant.Ninja.Turtles.Out.of.the.Shadows.2016.WEB-DLRip.NNM-CLUB\Teenage.Mutant.Ninja.Turtles.Out.of.the.Shadows.2016.WEB-DLRip.NNM-CLUB.avi
Формат                                   : AVI
Формат/Информация                        : Audio Video Interleave
Размер файла                             : 1,46 Гбайт
Продолжительность                        : 1 ч. 52 м.
Общий поток                              : 1864 Кбит/сек
Видео
Идентификатор                            : 0
Формат                                   : MPEG-4 Visual
Профиль формата                          : Advanced [email protected]
Параметр BVOP формата                    : 1
Параметр QPel формата                    : Нет
Параметр GMC формата                     : Без точки перехода
Параметр матрицы формата                 : Выборочная
Идентификатор кодека                     : XVID
Идентификатор кодека/Подсказка           : XviD
Продолжительность                        : 1 ч. 52 м.
Битрейт                                  : 1473 Кбит/сек
Ширина                                   : 720 пикселей
Высота                                   : 304 пикселя
Соотношение сторон                       : 2,35:1
Частота кадров                           : 23,976 кадра/сек
Цветовое пространство                    : YUV
Субдискретизация насыщенности            : 4:2:0
Битовая глубина                          : 8 бит
Тип развёртки                            : Прогрессивная
Метод сжатия                             : С потерями
Бит/(Пиксели*Кадры)                      : 0.281
Размер потока                            : 1,15 Гбайт (79%)
Библиотека кодирования                   : XviD 73
Аудио
Идентификатор                            : 1
Формат                                   : AC-3
Формат/Информация                        : Audio Coding 3
Расширение режима                        : CM (complete main)
Параметр Endianness формата              : Big
Идентификатор кодека                     : 2000
Продолжительность                        : 1 ч. 52 м.
Вид битрейта                             : Постоянный
Битрейт                                  : 384 Кбит/сек
Каналы                                   : 6 каналов
Расположение каналов                     : Front: L C R, Side: L R, LFE
Частота                                  : 48,0 КГц
Битовая глубина                          : 16 бит
Метод сжатия                             : С потерями
Размер потока                            : 308 Мбайт (21%)
Выравнивание                             : Соединение по промежуткам
Продолжительность промежутка             : 64  мс. (1,54 видеокадра)
Время предзагрузки промежутка            : 192  мс.
Заголовок                                : iTunes
Скриншоты:
Яндекс.Метрика
Рейтинг@Mail.ru