[ Сегодня на трекере фрилич! Идет свободное скачивание без начисления Download ]

Такой же предатель, как и мы / Our Kind of Traitor (Сюзанна Уайт / Susanna White) [2016, Триллер, WEB-DLRip] DUB (Звук с TS)

 

Создавать темы 29-Авг-2016 16:47

Такой же предатель, как и мы / Our Kind of Traitor-- --Производство: Великобритания, Франция
Жанр: Триллер
Продолжительность: 01:47:27
Режиссер: Сюзанна Уайт
Актеры: Юэн МакГрегор, Стеллан Скарсгард, Карлос Акоста, Радивойе Буквич, Мария Фомина, Доля Гавански, Григорий Добрыгин, Велибор Топич, Павел Жайда, Наоми Харрис
Возраст: 18+ (зрителям, достигшим 18 лет. запрещено для детей)
Рейтинг MPAA: R (лицам до 17 лет обязательно присутствие взрослого)
Дата мировой премьеры: 1 мая 2016
Дата российской премьеры: 12 мая 2016
Описание:
Молодая английская пара, отдыхая в Марокко, заводит знакомство с русским олигархом, отмывающим деньги для преступных группировок, чьи лидеры вот-вот спишут его со счетов. Чтобы спасти себя и семью, он предлагает разведке Великобритании море ценных сведений в обмен на защиту и покровительство. Его последняя отчаянная надежда — на «английских джентльменов», которые всегда «играют честно»…

Качество видео: WEB-DLRip pic
Перевод: Многоголосый закадровый, профессиональный (Звук с TS)
Вид субтитров: Отсутствуют
Реклама: Присутствуют голосовые и текстовые вставки рекламы.
Видео: Xvid, 720x400, ~1619 kb/s
Аудио: AC3, 2 ch, 192 kb/s

МИ

I:\ЭКРАНКИ\Такой же предатель, как и мы - Our Kind of Traitor (2016).P2.WEB-DLRip - Звук с TS.avi
General
Такой же предатель, как и мы - Our Kind of Traitor (2016).P2.WEB-DLRip - Звук с TS.avi
Format : AVI
Format/Info : Audio Video Interleave
File size : 1.37 GiB
Duration : 1h 47mn
Overall bit rate : 1 821 Kbps
Writing application : VirtualDubMod 1.5.10.2 (build 2540/release)
Writing library : VirtualDubMod build 2540/release
Video #0
ID : 0
Format : MPEG-4 Visual
Format profile : Advanced [email protected]
Format settings, BVOP : 2
Format settings, QPel : No
Format settings, GMC : No warppoints
Format settings, Matrix : Custom
Codec ID : XVID
Codec ID/Hint : XviD
Duration : 1h 47mn
Bit rate : 1 620 Kbps
Width : 720 pixels
Height : 400 pixels
Display aspect ratio : 16:9
Frame rate : 23.976 (24000/1001) fps
Color space : YUV
Chroma subsampling : 4:2:0
Bit depth : 8 bits
Scan type : Progressive
Compression mode : Lossy
Bits/(Pixel*Frame) : 0.235
Stream size : 1.22 GiB (89%)
Writing library : XviD 1.2.1 (UTC 2008-12-04)
Audio #1
ID : 1
Format : AC-3
Format/Info : Audio Coding 3
Mode extension : CM (complete main)
Format settings, Endianness : Big
Codec ID : 2000
Duration : 1h 47mn
Bit rate mode : Constant
Bit rate : 192 Kbps
Channel(s) : 2 channels
Channel positions : Front: L R
Sampling rate : 48.0 KHz
Frame rate : 31.250 fps (1536 spf)
Compression mode : Lossy
Stream size : 148 MiB (11%)
Alignment : Split accross interleaves
Interleave, duration : 42 ms (1.00 video frame)
Interleave, preload duration : 500 ms

Скриншоты:

Русский трейлер

Яндекс.Метрика
Рейтинг@Mail.ru