[ Сегодня на трекере фрилич! Идет свободное скачивание без начисления Download ]

Вавилон 5: Легенда о Рейнджерах: Жить и умереть в сиянии звезд (ТВ) / Babylon 5: The Legend of the Rangers: To Live and Die in Starlight (Майкл Виджер / Michael Vejar) [2002 г., фантастика, боевик, приключения, DVDRip] Dub [R5]

 

Создавать темы 29-Авг-2016 05:21

-Вавилон 5: Легенда о Рейнджерах: Жить и умереть в сиянии звезд (ТВ) / Babylon 5: The Legend of the Rangers: To Live and Die in Starlight-- Производство: США, Babylonian Productions, Legendary Films Inc., Sci-Fi Channel, The
Год выпуска: 2002 г.
Жанр: фантастика, боевик, приключения
Продолжительность: 01:26:14Мировая премьера: 19 января 2002
Перевод: Профессиональный (полное дублирование) [R5]
Режиссер: Майкл Виджер / Michael Vejar-В ролях: Дилан Нил, Андреас Катсулас, Алекс Захара, Myriam Sirois, Дин Маршалл, Уоррен Текучи, Дженни Ребекка Хоган, МакКензи Грэй, Дэвид Сторч, Энид-Рэй Адамс-Описание: Иногда очень нелегко быть землянином. Нельзя подобно некоторым инопланетянам жить при сверхвысоких температурах или дышать в разных атмосферах. Или, как это произошло с Дэвидом Мартеллом из отряда Анла’Шок, нельзя подчиниться уставу рейнджеров, не нарушив основной инстинкт человека — инстинкт самосохранения.Нарушение пункта устава Анла’Шок “Мы живем во имя Единственного и умрем во имя Единственного" превращает Мартелла в своего рода изгоя. Его пересаживают на устаревшую посудину «Лиандра». Неожиданно он оказывается ответственным за судьбу пассажиров высокого ранга (включая неподражаемого гражданина Г`Кара). Кораблю угрожает новая, а вернее чрезвычайно древняя цивилизация «Длань», по сравнению с которой Тени, наводившие ужас на всю Вселенную, были лишь жалкими насекомыми.-
Качество видео: DVDRip
Контейнер: AVI
Видео кодек: XviD
Аудио кодек: MP3
Видео: 688x384 (1.79:1), 25 fps, XviD build 47 ~3052 kbps avg, 0.46 bit/pixel
Аудио: 48 kHz, MPEG Layer 3, 2 ch, ~128.00 kbps avg
Cубтитры: отсутствуют

Media Info

Общее
Полное имя : C:\герои 7\Babylon 5\Babylon 5.The Legend Of The Rangers.2002.DVDRip.[pirat.ca].avi
Формат : AVI
Формат/Информация : Audio Video Interleave
Размер файла : 1,92 Гбайт
Продолжительность : 1 ч. 26 м.
Общий поток : 3190 Кбит/сек
Программа кодирования : VirtualDubMod 1.5.10.3 (build 2550/release)
Библиотека кодирования : VirtualDubMod build 2550/releaseВидео
Идентификатор : 0
Формат : MPEG-4 Visual
Профиль формата : [email protected]/* */
Параметр BVOP формата : Нет
Параметр QPel формата : Нет
Параметр GMC формата : Без точки перехода
Параметр матрицы формата : Default (H.263)
Идентификатор кодека : XVID
Идентификатор кодека/Подсказка : XviD
Продолжительность : 1 ч. 26 м.
Битрейт : 3052 Кбит/сек
Ширина : 688 пикселей
Высота : 384 пикселя
Соотношение сторон : 16:9
Частота кадров : 25,000 кадров/сек
Цветовое пространство : YUV
Субдискретизация насыщенности : 4:2:0
Битовая глубина : 8 бит
Тип развёртки : Прогрессивная
Метод сжатия : С потерями
Бит/(Пиксели*Кадры) : 0.462
Размер потока : 1,84 Гбайт (96%)
Библиотека кодирования : XviD 1.2.0.dev47 (UTC 2006-11-01)Аудио
Идентификатор : 1
Формат : MPEG Audio
Версия формата : Version 1
Профиль формата : Layer 3
Режим : Joint stereo
Идентификатор кодека : 55
Идентификатор кодека/Подсказка : MP3
Продолжительность : 1 ч. 26 м.
Вид битрейта : Постоянный
Битрейт : 128 Кбит/сек
Каналы : 2 канала
Частота : 48,0 КГц
Метод сжатия : С потерями
Размер потока : 79,0 Мбайт (4%)
Выравнивание : Соединение по промежуткам
Продолжительность промежутка : 40 мс. (1,00 видеокадр)
Время предзагрузки промежутка : 504 мс.
Библиотека кодирования : LAME3.97
Настройки программы : -m j -V 4 -q 2 -lowpass 17 -b 128

Скриншот c названием фильма

Скриншоты

-Трейлер
Яндекс.Метрика
Рейтинг@Mail.ru