Вавилон 5: Затерянные сказания - Голоса во тьме / Babylon 5: The Lost Tales (Дж. Майкл Стражински / J. Michael Straczynski) [2007 г., фантастика, боевик, приключения, DVDRip] MVO [R5]

 

Создавать темы 29-Авг-2016 05:18

-Вавилон 5: Затерянные сказания - Голоса во тьме / Babylon 5: The Lost Tales-- Производство: США, Канада, Lost Tales Films, NS Pictures и Warner Bros. Entertainment
Год выпуска: 2007 г.
Жанр: фантастика, боевик, приключения
Продолжительность: 01:12:09Мировая премьера: 27 июля 2007
Перевод: Профессиональный (многоголосый, закадровый) [R5]
Режиссер: Дж. Майкл Стражински / J. Michael Straczynski-В ролях: Брюс Бокслайтнер, Трэйси Скоггинс, Питер Вудворд, Алан Скарф, Брюс Рэмсей, Терил Ротери, Кигэн Макинтош, Крэйг Верони, Ричард Биггз, Питер Джурасик-Описание: Времена меняются. Опасности остаются. Через 10 лет, будучи Президентом Межзвёздного Альянса, Шеридан готовится к судьбоносному воссоединению Вавилона 5, что сможет предотвратить рок, нависший над Землей,.. если он в свою очередь откажется от своих внутренних принципов.
Тем временем командор Локли сталкивается с внезапным появлением чужака на пути следования станции — существом, чье присутствие открывает В5 перекрестки рая и ада.-
Качество видео: DVDRip
Контейнер: AVI
Видео кодек: XviD
Аудио кодек: MP3
Видео: 688x384 (1.79:1), 23.976 fps, XviD MPEG-4 ~3591 kbps avg, 0.57 bit/pixel
Аудио: 48 kHz, MPEG Layer 3, 2 ch, ~128.00 kbps avg
Cубтитры: отсутствуют

Рецензия

Приятно увидеть продолжение сериала детства. Приятно увидеть подправленную компьютерную графику. Но к сожалению хотелось большего. До уровня лучшего на данный момент в жанре скай-фай «Звездного крейсер Галактика» новый «Вавилон…» сильно не дотягивает. Приятно будет только старым фанатам, новых фильм не привлечет.

Media Info

Общее
Полное имя : C:\герои 7\Babylon 5\Babylon 5.The Lost Tales.2007.DVDRip.[pirat.ca].avi
Формат : AVI
Формат/Информация : Audio Video Interleave
Размер файла : 1,88 Гбайт
Продолжительность : 1 ч. 12 м.
Общий поток : 3729 Кбит/сек
Программа кодирования : VirtualDubMod 1.5.10.3 (build 2550/release)
Библиотека кодирования : VirtualDubMod build 2550/releaseВидео
Идентификатор : 0
Формат : MPEG-4 Visual
Профиль формата : Advanced [email protected]/* */
Параметр BVOP формата : 2
Параметр QPel формата : Нет
Параметр GMC формата : Без точки перехода
Параметр матрицы формата : Default (H.263)
Режим смешивания : Сжатый битовый поток
Идентификатор кодека : XVID
Идентификатор кодека/Подсказка : XviD
Продолжительность : 1 ч. 12 м.
Битрейт : 3591 Кбит/сек
Ширина : 688 пикселей
Высота : 384 пикселя
Соотношение сторон : 16:9
Частота кадров : 23,976 (23976/1000) кадра/сек
Цветовое пространство : YUV
Субдискретизация насыщенности : 4:2:0
Битовая глубина : 8 бит
Тип развёртки : Прогрессивная
Метод сжатия : С потерями
Бит/(Пиксели*Кадры) : 0.567
Размер потока : 1,81 Гбайт (96%)
Библиотека кодирования : XviD 1.2.1 (UTC 2008-12-04)Аудио
Идентификатор : 1
Формат : MPEG Audio
Версия формата : Version 1
Профиль формата : Layer 3
Режим : Joint stereo
Расширение режима : MS Stereo
Идентификатор кодека : 55
Идентификатор кодека/Подсказка : MP3
Продолжительность : 1 ч. 12 м.
Вид битрейта : Постоянный
Битрейт : 128 Кбит/сек
Каналы : 2 канала
Частота : 48,0 КГц
Метод сжатия : С потерями
Размер потока : 66,1 Мбайт (3%)
Выравнивание : Соединение по промежуткам
Продолжительность промежутка : 42 мс. (1,00 видеокадр)
Время предзагрузки промежутка : 504 мс.
Библиотека кодирования : LAME3.97
Настройки программы : -m j -V 4 -q 2 -lowpass 17 -b 128

Скриншот c названием фильма

Скриншоты

-Трейлер
Яндекс.Метрика
Рейтинг@Mail.ru