[ Сегодня на трекере фрилич! Идет свободное скачивание без начисления Download ]

Вавилон 5: Третье пространство (ТВ) / Babylon 5: Thirdspace (Хесус Сальвадор Тревиньо / Jesús Salvador Treviño) [1998 г., фантастика, боевик, приключения, DVDRip] MVO

 

Создавать темы 29-Авг-2016 05:14

-Вавилон 5: Третье пространство (ТВ) / Babylon 5: Thirdspace-- Производство: США, Babylonian Productions, Turner Network Television (TNT)
Год выпуска: 1998 г.
Жанр: фантастика, боевик, приключения
Продолжительность: 01:34:12Мировая премьера: 19 июля 1998
Перевод: Профессиональный (многоголосый, закадровый) [R5]
Режиссер: Хесус Сальвадор Тревиньо / Jesús Salvador Treviño-В ролях: Брюс Бокслайтнер, Клаудия Кристиан, Мира Фурлан, Джефф Конэвей, Стефен Ферст, Патриция Таллман, Клайд Кусацу, Шари Белафонте, Уильям Сэндерсон, Кип Кинг-Описание: Испытывая сложности со снабжением, экипаж Вавилона 5 старается максимально парализовать деятельность космических пиратов. Во время одного из таких рейдов командор Сьюзен Иванова находит в гиперпространстве артефакт колоссальных размеров, который буксируется к станции.
Практически сразу на Вавилон 5 прибывает экспедиция ксеноархеологов во главе с доктором Трент. У них получается активировать артефакт, и тут начинаются проблемы.-
Качество видео: DVDRip
Контейнер: AVI
Видео кодек: XviD
Аудио кодек: MP3
Видео: 688x384 (1.79:1), 23.976 fps, XviD build 47 ~2770 kbps avg, 0.44 bit/pixel
Аудио: 48 kHz, MPEG Layer 3, 2 ch, ~128.00 kbps avg
Cубтитры: отсутствуют

Рецензия

Третье Пространство — Темный мир, населенный ужасными монстрами.Это, пожалуй, самый «темный», мистический, зловещий и гротескный фильм из вселенной Вавилона 5, но, одновременно, он потрясающе интересный и захватывающий.Древний артефакт, создранный одной из самых страрейших рас в галактике — Варлонцами, который служит вратами в иное измерение, и в котором они рассчитывали найти мудрость, прикоснуться к богу, но вместо этого открыли дверь в наш мир жутким кровожадным чудовищам, которые жаждут уничтожить все живое.И вот, этот артефакт случайно находит команда станции Вавилон 5, и эта находка чуть было не приводит к полному уничтожению нашего мира. Ценой невероятных усилий, и кровопролитного сражения героям Вавилона удается справиться с чудовищами, повалившими в наше измерение из этих врат, и уничтожить сами врата.Фильм очень впечатляющий. Масштабные декорации и яркие космические баталии в дополнение к очень интересной легенде и родным персонажам сериала Вавилон 5, которые присутствуют в этом фильме практически в полном составе, актерском в том числе.10 из 10

Media Info

Общее
Полное имя : C:\герои 7\Babylon 5\Babylon 5.Thirdspace.1998.DVDRip.[pirat.ca].avi
Формат : AVI
Формат/Информация : Audio Video Interleave
Размер файла : 1,91 Гбайт
Продолжительность : 1 ч. 34 м.
Общий поток : 2908 Кбит/сек
Программа кодирования : VirtualDubMod 1.5.10.3 (build 2550/release)
Библиотека кодирования : VirtualDubMod build 2550/releaseВидео
Идентификатор : 0
Формат : MPEG-4 Visual
Профиль формата : [email protected]/* */
Параметр BVOP формата : Нет
Параметр QPel формата : Нет
Параметр GMC формата : Без точки перехода
Параметр матрицы формата : Default (H.263)
Идентификатор кодека : XVID
Идентификатор кодека/Подсказка : XviD
Продолжительность : 1 ч. 34 м.
Битрейт : 2770 Кбит/сек
Ширина : 688 пикселей
Высота : 384 пикселя
Соотношение сторон : 16:9
Частота кадров : 23,976 (24000/1001) кадра/сек
Цветовое пространство : YUV
Субдискретизация насыщенности : 4:2:0
Битовая глубина : 8 бит
Тип развёртки : Прогрессивная
Метод сжатия : С потерями
Бит/(Пиксели*Кадры) : 0.437
Размер потока : 1,82 Гбайт (95%)
Библиотека кодирования : XviD 1.2.0.dev47 (UTC 2006-11-01)Аудио
Идентификатор : 1
Формат : MPEG Audio
Версия формата : Version 1
Профиль формата : Layer 3
Режим : Joint stereo
Идентификатор кодека : 55
Идентификатор кодека/Подсказка : MP3
Продолжительность : 1 ч. 34 м.
Вид битрейта : Постоянный
Битрейт : 128 Кбит/сек
Каналы : 2 канала
Частота : 48,0 КГц
Метод сжатия : С потерями
Размер потока : 86,3 Мбайт (4%)
Выравнивание : Соединение по промежуткам
Продолжительность промежутка : 42 мс. (1,00 видеокадр)
Время предзагрузки промежутка : 504 мс.
Библиотека кодирования : LAME3.97
Настройки программы : -m j -V 4 -q 2 -lowpass 17 -b 128

Скриншот c названием фильма

Скриншоты

-Трейлер
Яндекс.Метрика
Рейтинг@Mail.ru