Воздушный волк / Airwolf / Сезон: 2 / Серии: 1-22 из 22 (Дональд П. Беллисарио / Donald P. Bellisario) [1985 г., фантастика, боевик, BDRip] MVO (ТВ3)

 

Создавать темы 29-Авг-2016 05:11

-Воздушный волк / Airwolf-- Производство: США, Belisarius Productions, Universal TV
Жанр: фантастика, боевик
Год выпуска: 1985 г.
Продолжительность: 00:48:00Перевод: Профессиональный (многоголосый, закадровый) [ТВ3]
Режиссер: Дональд П. Беллисарио / Donald P. Bellisario-В ролях: Ян-Майкл Винсент, Алекс Корд, Эрнест Боргнайн, Джин Брюс Скотт, Дебора Прэтт, Лэнс ЛеГолт, Монти Джордан, Сэнди Кроунмейер, Джон Брэндон, Исмаэль ’Ист’ Карло-Описание: Засекреченное подразделение ЦРУ, известное как "Фирма", разработало новый, оснащенный современным вооружением вертолет под названием "Небесный волк". Но во время пробного полета один из создателей "Небесного волка" повернул его беспощадную огневую мощь против своих и угнал вертолет в Ливию.-
Качество видео: BDRip
Контейнер: AVI
Видео кодек: XviD
Аудио кодек: MP3
Видео: 720x528 (1.36:1), 23.976 fps, XviD build 73 ~1819 kbps avg, 0.20 bit/pixel
Аудио: 48 kHz, MPEG Layer 3, 2 ch, ~128.00 kbps avg
Cубтитры: отсутствуют

Рецензия

Великолепный и очень мощный сериал!"Воздушный волк»… До сих пор помню этот великолепный и поистине замечательный сериал, который так любил и обожал смотреть в детстве, и, если бы предоставилась такая возможность, то обязательно посмотрел бы его ещё, и не один раз. Как сейчас помню: приходил с садика, а там уже начинается любимый сериал, скорее включал его и наслаждался просмотром, содержательностью и зрелищностью, которые в необходимых количествах имеются в этом сериале.К сожалению, точных подробностей и характерных моментов или эпизодов сейчас уже не припомню, — много времени прошло, однако до сих пор могу с уверенностью сказать, что птичка, — тот самый «Воздушный волк» был с отменным дизайном и очень радовал, когда находился в действии, — судите сами, — обтекаемая, буквально полированная поверхность, мягкий звук от работающего винта, и… впечатляющие и одновременно с тем удивляющие пулемёты по бокам, бортам вертолёта, — всё это под незаменимый аккомпанемент погонь, взрывов и сверхбыстрых полётов за вражескими самолётами! Уму непостижимо, — а ведь это те самые 80-ые, которые вспоминаешь с радостью и лёгкой ностальгией и грустью на сердце.«Воздушный волк» навсегда останется для меня замечательным, превосходным и очень интересным сериалом, лучшим из лучших и достойным похвал, лестных отзывов и почитания. Искренне надеюсь, что в очень скором времени смогу приобрести этот сериал, и уж тогда, — тогда уж в полной мере насладиться и возрадоваться просмотром его, что-то, может быть, освежая в памяти, а что-то, — припоминая и загадочно улыбаясь. Словом, толко радоваться и ликовать от увиденного, ибо это уже нечто классическое и относящееся к шедеврам кинематографа.Однако, как бы там ни было, какие бы преграды и препятствия не отделяли сейчас меня от «Воздушного волка», как бы сложно достать сейчас этот сериал мне не было, я свято буду верить и ждать, что в один прекрасный момент увижу на прилавке магазина сверкающий и ожидающий моего приветствия новенький диск с шикарной и много для меня значащей надписью «Воздушный волк». Надеюсь, этот триумфальный момент не за горами, ведь надежда и вера переполняет меня, и заставляет верить в невозможное!Итак, объективная оценка сериалу всегда воспринималась и ощущалась мною как только 10 из 10, ибо сериал того стоит, более того, если его и начнут вновь показывать по кабелю, то, уж поверьте, тогда даже современные зрители подключатся и станут с упованием и вдохновением смотреть серию за серией, эпизод за эпизодом этого поистине интересного и заметного сериала с прозорливым названием «Воздушный волк»!

Media Info

Общее
Полное имя : F:\!СЕРИАЛЫ\Воздушный волк\Воздушный волк. BDRip\Airwolf.S02.1985.[pirat.ca]\Airwolf.s02.e01. Красотка _ Sweet Britches.avi
Формат : AVI
Формат/Информация : Audio Video Interleave
Размер файла : 676 Мбайт
Продолжительность : 48 м.
Общий поток : 1957 Кбит/сек
Программа кодирования : VirtualDubMod 1.5.10.3 (build 2550/release)
Библиотека кодирования : VirtualDubMod build 2550/releaseВидео
Идентификатор : 0
Формат : MPEG-4 Visual
Профиль формата : Advanced [email protected]/* */
Параметр BVOP формата : 1
Параметр QPel формата : Нет
Параметр GMC формата : Без точки перехода
Параметр матрицы формата : Default (MPEG)
Идентификатор кодека : XVID
Идентификатор кодека/Подсказка : XviD
Продолжительность : 48 м.
Битрейт : 1820 Кбит/сек
Ширина : 720 пикселей
Высота : 528 пикселей
Соотношение сторон : 4:3
Частота кадров : 23,976 (23976/1000) кадра/сек
Цветовое пространство : YUV
Субдискретизация насыщенности : 4:2:0
Битовая глубина : 8 бит
Тип развёртки : Прогрессивная
Метод сжатия : С потерями
Бит/(Пиксели*Кадры) : 0.200
Размер потока : 629 Мбайт (93%)
Библиотека кодирования : XviD 73Аудио
Идентификатор : 1
Формат : MPEG Audio
Версия формата : Version 1
Профиль формата : Layer 3
Идентификатор кодека : 55
Идентификатор кодека/Подсказка : MP3
Продолжительность : 48 м.
Вид битрейта : Постоянный
Битрейт : 128 Кбит/сек
Каналы : 2 канала
Частота : 48,0 КГц
Метод сжатия : С потерями
Размер потока : 44,2 Мбайт (7%)
Выравнивание : Соединение по промежуткам
Продолжительность промежутка : 42 мс. (1,00 видеокадр)
Время предзагрузки промежутка : 504 мс.

Скриншот c названием фильма

Скриншоты

-Трейлер
Яндекс.Метрика
Рейтинг@Mail.ru