[ Сегодня на трекере фрилич! Идет свободное скачивание без начисления Download ]

Автоматик / Automatic (Джон Марловски / John Murlowski) [1995 г., фантастика, боевик, DVDRip] MVO

 

Создавать темы 29-Авг-2016 05:06

-Автоматик / Automatic-- Производство: США, Lakeview Productions, Republic Pictures (II)
Год выпуска: 1995 г.
Жанр: фантастика, боевик
Продолжительность: 01:23:10Мировая премьера: 8 апреля 1995
Перевод: Профессиональный (многоголосый, закадровый)
Режиссер: Джон Марловски / John Murlowski-В ролях: Оливье Грюнер, Дафна Эшбрук, Джон Гловер, Джефф Кобер, Деннис Липском, Стенли Кэмел, Пенни Джонсон, Аннабелль Гурвич, Трой Эванс, Марджин Холден, Рэймонд Фицпатрик, Джеффри Д. Сэмс, Майкл Д. Уэзерред, Лаура Степп-Описание: Мощная корпорация РобГен готовит агрессивную рекламную компанию своего новейшего изобретения - киборга: охранника и помощника, названного Автоматиком, и ожидает колоссальных доходов от его продажи. Но за день перед презентацией прототип Автоматика, J269, защищая секретаршу Нору, которую пытается изнасиловать один из директоров корпорации, случайно убивает насильника. Глава РобГен отправляет в здание компании взвод коммандос с заданием уничтожить и Автоматика и Нору, чтобы скрыть факт, ставящий под угрозу доходы корпорации и результаты многолетней работы. Но боевые способности Автоматика и сообразительность Норы делают их по-настоящему «крепким орешком» для команды убийц. А обнаружив, что оказались в ловушке, Нора и Автоматик делают пугающее открытие - оказывается, что у них гораздо больше общего, чем они могли предположить.-
Качество видео: DVDRip
Контейнер: AVI
Видео кодек: DivX
Аудио кодек: MP3
Видео: 512x384 (1.33:1), 25 fps, DivX Codec 5.2.1 build 1338 ~1025 kbps avg, 0.21 bit/pixel
Аудио: 44.100 kHz, MPEG Layer 3, 2 ch, ~128.00 kbps avg
Cубтитры: отсутствуют

Рецензия

Это не детский автоматик1994 год. Наконец после пяти лет раздумий, ожидания и простоя, Оливье Грюнер решил связать свою дальнейшую жизнь карьерой актёра. И после ролей французского кикбоксёра в «Городе ангелов» (1989) и киборга-полицейского в «Немезиде» (1992) он снимается в фантастическом боевике «Автоматик». Здесь он во второй раз предстаёт в роли киборга, автоматизированного охранника на защите правосудия. И хотя в «Немезиде» он был в прошлом человеком, то здесь его «создали» в лаборатории генной инженерии и даже пустили в массовое производство. В сюжете прослеживаются параллели с «Крепким орешком», драки Оливье как всегда на уровне, поставлены чётко и грамотно, экшн имеет несколько оригинальных ходов. Актриса Дафна Эшбрук очень мила и «не мешается» как бывает в некоторых фильмах, а сам Грюнер, я считаю, больше близок к Терминатору, только меньше по габаритам. Первый раз смотрел этот фильм на видео, когда в 1996-м его выпустила компания «Екатеринбург Арт» под весьма странным для нас названием. Тогда он, конечно, мне понравился за исключением перевода. Сейчас, найдя его на DVD,пересмотрел и остался доволен. По моему мнению, такой фильм должен находиться в коллекции старых добрых боевиков.7 из 10

Media Info

Общее
Полное имя : E:\!Автоматик\Automatic.1995.DVDRip.[pirat.ca].avi
Формат : AVI
Формат/Информация : Audio Video Interleave
Размер файла : 692 Мбайт
Продолжительность : 1 ч. 23 м.
Общий поток : 1164 Кбит/сек
Программа кодирования : VirtualDubMod 1.5.10.2 (build 2540/release)
Библиотека кодирования : VirtualDubMod build 2540/releaseВидео
Идентификатор : 0
Формат : MPEG-4 Visual
Параметр BVOP формата : 1
Параметр QPel формата : Нет
Параметр GMC формата : Без точки перехода
Параметр матрицы формата : Default (H.263)
Режим смешивания : Сжатый битовый поток
Идентификатор кодека : DX50
Идентификатор кодека/Подсказка : DivX 5
Продолжительность : 1 ч. 23 м.
Битрейт : 1026 Кбит/сек
Ширина : 512 пикселей
Высота : 384 пикселя
Соотношение сторон : 4:3
Частота кадров : 25,000 кадров/сек
Цветовое пространство : YUV
Субдискретизация насыщенности : 4:2:0
Битовая глубина : 8 бит
Тип развёртки : Прогрессивная
Метод сжатия : С потерями
Бит/(Пиксели*Кадры) : 0.209
Размер потока : 610 Мбайт (88%)
Библиотека кодирования : DivX 5.2.1 (DrDivX 106) (UTC 2004-09-08)Аудио
Идентификатор : 1
Формат : MPEG Audio
Версия формата : Version 1
Профиль формата : Layer 3
Идентификатор кодека : 55
Идентификатор кодека/Подсказка : MP3
Продолжительность : 1 ч. 23 м.
Вид битрейта : Постоянный
Битрейт : 128 Кбит/сек
Каналы : 2 канала
Частота : 44,1 КГц
Метод сжатия : С потерями
Размер потока : 76,1 Мбайт (11%)
Выравнивание : Разделение по промежуткам
Продолжительность промежутка : 40 мс. (1,00 видеокадр)
Время предзагрузки промежутка : 500 мс.

Скриншот c названием фильма

Скриншоты

-Трейлер
Яндекс.Метрика
Рейтинг@Mail.ru