Кинджайт: Запретные темы / Kinjite: Forbidden Subjects (Дж. Ли Томпсон / J. Lee Thompson) [1988 г., боевик, триллер, BDRip-AVC, 720p] MVO [ОРТ] + MVO [5 канал]

 

Создавать темы 29-Авг-2016 04:58

-Кинджайт: Запретные темы / Kinjite: Forbidden Subjects-- Производство: США
Год выпуска: 1988 г.
Жанр: боевик, триллер
Продолжительность: 01:37:54Мировая премьера: 3 февраля 1989
Перевод: Профессиональный (многоголосый, закадровый) [ОРТ]
Перевод 2: Профессиональный (многоголосый, закадровый) [5 канал]
Режиссер: Дж. Ли Томпсон / J. Lee Thompson-В ролях: Чарльз Бронсон, Джилл Ито, Перри Лопес, Синтия Гау, Хуан Фернандес, Вероника Каротерс, Джеймс Пакс, Пегги Липтон, Сай Ричардсон, Мэрион Юе, Билл МакКинни, Джералд Кастилло, Николь Эггерт, Эми Хэтэуэй, Мишель Вонг, Сэм Чю мл., Джим Ишида, Лейла Ли Олсен, Хелен Лин, Ричард Э. Батлер, Билл Чо Ли, Джером Тор, Майкл Чонм-Описание: Была похищена девочка, и стареющий коп из отдела нравов начинает подозревает сутенера, делом которого занимается уже давно. Его дочь сама недавно подверглась приставаниям со стороны выходца из Японии, и оказывается, что похищенная девочка тоже японка… Сможет ли он, плюнув на расовые предрассудки и личную неприязнь честно выполнить свой долг?-
Качество видео: BDRip-AVC
Контейнер: MKV
Стандарт разрешения: 720p
Видео кодек: MPEG4 AVC
Аудио кодек: AC3
Видео: MPEG4/AVC, 1152x624, 1.85:1, 23.976 (24000/1001) FPS, 4405 kb/s
Аудио: AC-3, 48.0 kHz, 192 kb/s, 2.0
Аудио #2: AC-3, 48.0 kHz, 192 kb/s, 2.0
Cубтитры: отсутствуют

Рецензия

Последний фильм знаменитого режиссера Дж. Ли. Томпсона, подарившего нам «Золото Маккены», «Пушки Навароне», «Идущий сквозь огонь» и др.Данный фильм один из многих, которых он сделал совместно с Чарльзом Бронсоном в 80-е годы.Бронсон играет здесь стареющего копа из отдела нравов. Была похищена девочка, и наш герой подозревает сутенера, делом которого занимается уже давно. Его дочь сама недавно подверглась приставаниям со стороны выходца из Японии, и оказывается, что похищенная девочка тоже японка…
Сможет ли он, плюнув на расовые предрассудки и личную неприязнь честно выполнить свой долг?..Фильм очень жесток, смакуя подробности, режиссер безжалостно обходится со всеми героями фильма. После просмотра данного фильма у меня возник вопрос- был ли Хеппи-Энд? Да, злодей был наказан, но у меня осталось чувство, как- будто режиссера вынудили его вставить в конец.Очень скользкая тема, раскрыта не очень удачно, но Бронсон как всегда на высоте.6 из 10.

Media Info

Общее
Уникальный идентификатор : 227220789790059321951180031603709394221 (0xAAF121DEB37C01AA80D7B5C0718D3D2D)
Полное имя : E:\Кинджайт Запретные темы\Kinjite.1989.BDRip-AVC.[pirat.ca].mkv
Формат : Matroska
Версия формата : Version 2
Размер файла : 3,34 Гбайт
Продолжительность : 1 ч. 37 м.
Общий поток : 4890 Кбит/сек
Дата кодирования : UTC 2016-08-28 13:47:27
Программа кодирования : mkvmerge v5.3.0 ('I could have danced') built on Feb 9 2012 10:38:07
Библиотека кодирования : libebml v1.2.3 + libmatroska v1.3.0Видео
Идентификатор : 1
Формат : AVC
Формат/Информация : Advanced Video Codec
Профиль формата : [email protected]/* */
Параметр CABAC формата : Да
Параметр ReFrames формата : 11 кадров
Идентификатор кодека : V_MPEG4/ISO/AVC
Продолжительность : 1 ч. 37 м.
Битрейт : 4408 Кбит/сек
Ширина : 1152 пикселя
Высота : 624 пикселя
Соотношение сторон : 1,85:1
Режим частоты кадров : Постоянный
Частота кадров : 23,976 (24000/1001) кадра/сек
Цветовое пространство : YUV
Субдискретизация насыщенности : 4:2:0
Битовая глубина : 8 бит
Тип развёртки : Прогрессивная
Бит/(Пиксели*Кадры) : 0.256
Размер потока : 3,01 Гбайт (90%)
Библиотека кодирования : x264 core 148 r2638 7599210
Настройки программы : cabac=1 / ref=11 / deblock=1:-1:-1 / analyse=0x3:0x133 / me=esa / subme=11 / psy=1 / psy_rd=1.00:0.00 / mixed_ref=1 / me_range=32 / chroma_me=1 / trellis=2 / 8x8dct=1 / cqm=0 / deadzone=21,11 / fast_pskip=1 / chroma_qp_offset=-2 / threads=6 / lookahead_threads=1 / sliced_threads=0 / nr=0 / decimate=0 / interlaced=0 / bluray_compat=0 / constrained_intra=0 / bframes=14 / b_pyramid=2 / b_adapt=2 / b_bias=0 / direct=1 / weightb=1 / open_gop=0 / weightp=2 / keyint=240 / keyint_min=23 / scenecut=40 / intra_refresh=0 / rc_lookahead=50 / rc=crf / mbtree=0 / crf=18.6 / qcomp=0.60 / qpmin=0 / qpmax=69 / qpstep=4 / vbv_maxrate=62500 / vbv_bufsize=78125 / crf_max=0.0 / nal_hrd=none / filler=0 / ip_ratio=1.40 / pb_ratio=1.30 / aq=2:0.90
Default : Да
Forced : Нет
Statistics Tags Issue : mkvmerge v8.5.2 ('Crosses') 32bit 2016-08-26 10:50:17 / mkvmerge v5.3.0 ('I could have danced') built on Feb 9 2012 10:38:07 2016-08-28 13:47:27
FromStats_BitRate : 4503761
FromStats_Duration : 01:37:54.035000000
FromStats_FrameCount : 140836
FromStats_StreamSize : 3306906244Аудио #1
Идентификатор : 2
Формат : AC-3
Формат/Информация : Audio Coding 3
Расширение режима : CM (complete main)
Параметр Endianness формата : Big
Идентификатор кодека : A_AC3
Продолжительность : 1 ч. 37 м.
Вид битрейта : Постоянный
Битрейт : 192 Кбит/сек
Каналы : 2 канала
Расположение каналов : Front: L R
Частота : 48,0 КГц
Частота кадров : 31,250 кадров/сек (1536 spf)
Метод сжатия : С потерями
Размер потока : 134 Мбайт (4%)
Заголовок : профессиональный
Язык : Russian
Default : Да
Forced : НетАудио #2
Идентификатор : 3
Формат : AC-3
Формат/Информация : Audio Coding 3
Расширение режима : CM (complete main)
Параметр Endianness формата : Big
Идентификатор кодека : A_AC3
Продолжительность : 1 ч. 37 м.
Вид битрейта : Постоянный
Битрейт : 192 Кбит/сек
Каналы : 2 канала
Расположение каналов : Front: L R
Частота : 48,0 КГц
Частота кадров : 31,250 кадров/сек (1536 spf)
Метод сжатия : С потерями
Размер потока : 134 Мбайт (4%)
Заголовок : закадровый
Язык : Russian
Default : Нет
Forced : НетМеню
00:00:00.000 : en:00:00:00.000
00:00:10.926 : en:00:00:10.926
00:14:46.176 : en:00:14:46.176
00:24:55.911 : en:00:24:55.911
00:38:19.255 : en:00:38:19.255
00:49:41.143 : en:00:49:41.143
01:00:52.565 : en:01:00:52.565
01:11:39.752 : en:01:11:39.752
01:24:04.787 : en:01:24:04.787

Скриншот c названием фильма

Скриншоты

-Трейлер
Яндекс.Метрика
Рейтинг@Mail.ru