[ Сегодня на трекере фрилич! Идет свободное скачивание без начисления Download ]

Placebo - Jesus Son [2016 г.] (Alternative rock) [TVRip, 720p]

 

Создавать темы 29-Авг-2016 04:38

-Placebo - Jesus Son-- Год выпуска: 2016 г.
Страна: London, United Kingdom, Dundee
Жанр: Alternative rock
Продолжительность: 00:03:19-Качество видео: TVRip
Контейнер: MKV
Стандарт разрешения: 720p
Видео кодек: MPEG4 AVC
Аудио кодек: MP3
Видео: : 1 280 pixels x : 536 pixels : 3 841 Kbps : 25.000 fps :
Аудио: : 320 Kbps : 2 channels : 44.1 KHz :-

Media Info

General
UniqueID : 248563063947429505441847735350751075872 (0xBAFF813A14CC20A0B1D1F047A6F31E20)
Complete name : G:\Placebo-Jesus_Son-DDC-720p-x264-2016-LOVERS\placebo-jesus_son-ddc-720p-x264-2016-lovers.mkv
Format : Matroska
File size : 101 MiB
Duration : 3mn 19s
Overall bit rate : 4 245 Kbps
Encoded date : UTC 2016-08-26 19:19:08
Writing application : mkvmerge v9.3.1 ('Mask Machine') 32bit
Writing library : libebml v1.3.4 + libmatroska v1.4.5Video
ID : 1
Format : AVC
Format/Info : Advanced Video Codec
Format profile : [email protected]/* */
Format settings, CABAC : Yes
Format settings, ReFrames : 5 frames
Format settings, GOP : M=5, N=16
Codec ID : V_MPEG4/ISO/AVC
Duration : 3mn 19s
Bit rate : 3 841 Kbps
Width : 1 280 pixels
Height : 536 pixels
Display aspect ratio : 2.35:1
Frame rate : 25.000 fps
Color space : YUV
Chroma subsampling : 4:2:0
Bit depth : 8 bits
Scan type : Progressive
Bits/(Pixel*Frame) : 0.224
Stream size : 91.5 MiB (90%)
Writing library : x264 core 148 r2705 3f5ed56
Encoding settings : cabac=1 / ref=5 / deblock=1:0:0 / analyse=0x3:0x113 / me=umh / subme=9 / psy=1 / psy_rd=1.00:0.00 / mixed_ref=1 / me_range=24 / chroma_me=1 / trellis=1 / 8x8dct=1 / cqm=0 / deadzone=21,11 / fast_pskip=1 / chroma_qp_offset=-2 / threads=6 / lookahead_threads=1 / sliced_threads=0 / nr=0 / decimate=1 / interlaced=0 / bluray_compat=0 / constrained_intra=0 / bframes=16 / b_pyramid=2 / b_adapt=1 / b_bias=0 / direct=1 / weightb=1 / open_gop=0 / weightp=2 / keyint=250 / keyint_min=25 / scenecut=40 / intra_refresh=0 / rc_lookahead=40 / rc=crf / mbtree=1 / crf=17.0 / qcomp=0.60 / qpmin=0 / qpmax=69 / qpstep=4 / vbv_maxrate=62500 / vbv_bufsize=78125 / crf_max=0.0 / nal_hrd=none / filler=0 / ip_ratio=1.40 / aq=1:1.00Audio
ID : 2
Format : MPEG Audio
Format version : Version 1
Format profile : Layer 3
Mode : Joint stereo
Mode extension : MS Stereo
Codec ID : A_MPEG/L3
Codec ID/Hint : MP3
Duration : 3mn 19s
Bit rate mode : Constant
Bit rate : 320 Kbps
Channel(s) : 2 channels
Sampling rate : 44.1 KHz
Compression mode : Lossy
Video delay : 36ms
Stream size : 7.62 MiB (8%)
Writing library : LAME3.99
Encoding settings : -m j -V 4 -q 0 -lowpass 20.5
-

Скриншоты

Яндекс.Метрика
Рейтинг@Mail.ru