Гоёкин / Золото сёгуна / Goyokin (Хидео Гося)[1969,боевик, драма, приключения, DVDRip] | P2

 

Создавать темы 04-Янв-2014 03:40

Гоёкин / Золото сёгуна / Goyokin- Информация о фильме
Название: Гоёкин / Золото сёгуна
Оригинальное название: Goyokin
Год выхода: 1969
Жанр: боевик, драма, приключения
Режиссер: Хидео Гося
В ролях: Тацуя Накадаи, Тэцуро Тамба, Ёко Цукаса, Рурико Асаока, Куниэ Танака, Исао Натсуяги, Ко Нисимура, Эйдзиро Тоно, Бэн Хиура, Сусуму Куробе
О фильме:
Клан самурая Магобэя живет на холодном снежном острове. У клана большие финансовые проблемы, и чтобы решить их, казначей клана решил заняться пиратством — захватил золото с корабля сегуна, проплывавшего мимо. А исполнителей — простых рыбаков — убрали, чтобы сегунат ничего не узнал. Магобэй не считает, что цель оправдывает средства, и не может смириться с гибелью рыбаков. Но и открыто выступить против интересов клана он не может — ему мешают верность и долг. Поэтому он покидает клан и влачит жалкую жизнь ронина, пока не узнает что преступление планируется вновь. На этот раз он должен вернуться — и спасти рыбаков.

Страна: Япония
Студия: Fuji Television Network, Tokyo Eiga Co Ltd.
Продолжительность: 02:02:54
Перевод: Профессиональный (двухголосый)
Файл
Кодек: XviD
Качество: DVDRip
Видео: 688x288, 1203 kbps, 25 fps, 0,243 Bits/(Pixel*Frame)
Звук:
AC3, 48 kHz, 192 kbps, 2 ch - русский (профессиональный, двухголосый)
AC3, 48 kHz, 192 kbps, 2 ch - japanese (original)
Субтитры: Нет

Скриншоты

MediaInfo

General
Complete name : G:Zoloto.seguna.1969.dvdrip_by_Bathory.avi
Format : AVI
Format/Info : Audio Video Interleave
File size : 1.37 GiB
Duration : 2h 2mn
Overall bit rate : 1 591 Kbps
Video
ID : 0
Format : MPEG-4 Visual
Format profile : Advanced [email protected]
Format settings, BVOP : 2
Format settings, QPel : No
Format settings, GMC : No warppoints
Format settings, Matrix : Default (MPEG)
Codec ID : XVID
Codec ID/Hint : XviD
Duration : 2h 2mn
Bit rate : 1 203 Kbps
Width : 688 pixels
Height : 288 pixels
Display aspect ratio : 2.40:1
Frame rate : 25.000 fps
Color space : YUV
Chroma subsampling : 4:2:0
Bit depth : 8 bits
Scan type : Progressive
Compression mode : Lossy
Bits/(Pixel*Frame) : 0.243
Stream size : 1.03 GiB (76%)
Writing library : XviD 1.2.1 (UTC 2008-12-04)
Audio #1
ID : 1
Format : AC-3
Format/Info : Audio Coding 3
Mode extension : CM (complete main)
Format settings, Endianness : Big
Codec ID : 2000
Duration : 2h 2mn
Bit rate mode : Constant
Bit rate : 192 Kbps
Channel count : 2 channels
Channel positions : Front: L R
Sampling rate : 48.0 KHz
Bit depth : 16 bits
Compression mode : Lossy
Stream size : 169 MiB (12%)
Alignment : Aligned on interleaves
Interleave, duration : 64 ms (1.60 video frames)
Interleave, preload duration : 192 ms
Title : VTS_01_1 T80 2_0ch 192Kbps DELAY 0ms_new
Audio #2
ID : 2
Format : AC-3
Format/Info : Audio Coding 3
Mode extension : CM (complete main)
Format settings, Endianness : Big
Codec ID : 2000
Duration : 1h 58mn
Bit rate mode : Constant
Bit rate : 192 Kbps
Channel count : 2 channels
Channel positions : Front: L R
Sampling rate : 48.0 KHz
Bit depth : 16 bits
Compression mode : Lossy
Stream size : 163 MiB (12%)
Alignment : Aligned on interleaves
Interleave, duration : 66 ms (1.66 video frames)
Interleave, preload duration : 192 ms
Title : VTS_01_1 T81 2_0ch 224Kbps DELAY 0ms_new
Яндекс.Метрика
Рейтинг@Mail.ru