Азартное привидение / Hong fu qi tian (Клифтон Ко / Clifton Ko) [1991 г., боевик, комедия, DVDRip] MVO

 

Создавать темы 26-Авг-2016 04:23

-Азартное привидение / Hong fu qi tian-- Производство: Гонконг, Golden Leaf Film Production Consultant
Год выпуска: 1991 г.
Жанр: боевик, комедия
Продолжительность: 01:29:14Мировая премьера: 2 марта 1991
Перевод: Профессиональный (многоголосый, закадровый)
Режиссер: Клифтон Ко / Clifton Ko-В ролях: Саммо Хунг Кам-Бо, Нина Ли Чи, Ман Хой, Джеймс Вонг, Йип Винг Чо, Джеймс Тьен, Ма У, Пол Чун, Кори Юэнь, Чуи-Фан Фунг...-Описание: Приведение деда обещает внуку помощь выиграть миллион, но в обмен Само должен найти и убить человека, отправившего деда на тот свет много лет назад. Чтобы облегчить внуку задачу, дед посвящает его в тайны рукопашного боя.-
Качество видео: DVDRip
Контейнер: AVI
Видео кодек: XviD
Аудио кодек: MP3
Видео: 720x400 (1.80:1), 25 fps, XviD build 50 ~1890 kbps avg, 0.26 bit/pixel
Аудио: 48 kHz, MPEG Layer 3, 2 ch, ~128.00 kbps avg
Cубтитры: отсутствуют

Рецензия

Сэммо Хунг — при этом имени вы наверняка подумаете о хорошем гонконгском экшне. Но не торопитесь с выводами! Фильм можно с натяжкой назвать боевиком, но зато это действительно очень смешная фантастико-авантюрная комедия, в которой Сэммо Хунг с успехом доказывает, что он не только прекрасный боец и мастер трюков, но и хороший актер — мастер перевоплощений и замечательный комик. Впрочем, последнее было известно давно, вот только главных комедийных ролей Сэммо, как правило, не доставалось — он то в помошниках у Джеки Чана, то режиссер фильма, то постановщик боев, а вот таких полновесных комических ролей у него не было.
Поэтому смотреть этот фильм вдвойне здорово. Нет, даже втройне. Потому что Сэммо Хунг играет здесь сразу трех совершенно разных персонажей и внешне, и по характеру: мелкого жулика-внука, крупного жулика-деда и честного почтальона-отца. Все персонажи сыграны в разных стилистиках — совершенно серьезный отец, остроумно-гротескный внук и совершенно буффонадный дед-призрак. Конечно, к спецэффектам в гонконгских классических фильмах требования минимальны, да, и не они делают фильм. Главное, эта комедия стала бенефисом Сэммо Хунга и его блистательного комического таланта.
Впрочем, разве бывают гонконгские фильмы, будь это комедии или драмы, без рукопашных схваток? Конечно, нет! И здесь привычно присутствует несколько классных боев, которые можно смело отнести к классике жанра. Выполнены они с юмором и просто молниеносно. Есть, конечно, финальная драка, но она не особо поражает воображение, ей отдано лишь несколько секунд экранного времени.
Кроме самого Сэммо, в фильме снялись еще известные актеры, полюбившиеся еще по «Счастливым звездам» и «Победителям и грешникам» — роли у них эпизодические, но все равно приятно. Да, и девушки в гонконгских фильмах всегда красивые.
Фильм действительно очень смешной и задорный, кстати, довольно интересно высмеиваются особенности капиталистического Гонконга и коммунистического Китая, да, и криминальная интрига сделала бы честь любой американской криминальной комедии. А Сэммо — молодец, я его еще больше зауважал. Актеров и «реальных» бойцов его уровня в Китае очень немного. Он гораздо больше раскрывается как актер в фильмах, которые сам не режиссирует, наверное, по обе стороны камеры находиться одновременно вредно.

Media Info

Общее
Полное имя : J:\Азартное привидение\Azartnoe prividenie.1991.DVDRip.[pirat.ca].avi
Формат : AVI
Формат/Информация : Audio Video Interleave
Размер файла : 1,26 Гбайт
Продолжительность : 1 ч. 29 м.
Общий поток : 2029 Кбит/сек
Название фильма : Азартное привидение 1991
Программа кодирования : VirtualDubModRus 1.5.10.2 (build 2540/release)Видео
Идентификатор : 0
Формат : MPEG-4 Visual
Профиль формата : Advanced [email protected]/* */
Параметр BVOP формата : 2
Параметр QPel формата : Нет
Параметр GMC формата : Без точки перехода
Параметр матрицы формата : Default (MPEG)
Идентификатор кодека : XVID
Идентификатор кодека/Подсказка : XviD
Продолжительность : 1 ч. 29 м.
Битрейт : 1891 Кбит/сек
Ширина : 720 пикселей
Высота : 400 пикселей
Соотношение сторон : 16:9
Частота кадров : 25,000 кадров/сек
Цветовое пространство : YUV
Субдискретизация насыщенности : 4:2:0
Битовая глубина : 8 бит
Тип развёртки : Прогрессивная
Метод сжатия : С потерями
Бит/(Пиксели*Кадры) : 0.263
Размер потока : 1,18 Гбайт (93%)
Библиотека кодирования : XviD 1.2.1 (UTC 2008-12-04)Аудио
Идентификатор : 1
Формат : MPEG Audio
Версия формата : Version 1
Профиль формата : Layer 3
Режим : Joint stereo
Расширение режима : MS Stereo
Идентификатор кодека : 55
Идентификатор кодека/Подсказка : MP3
Продолжительность : 1 ч. 29 м.
Вид битрейта : Постоянный
Битрейт : 128 Кбит/сек
Каналы : 2 канала
Частота : 48,0 КГц
Метод сжатия : С потерями
Размер потока : 81,7 Мбайт (6%)
Выравнивание : Соединение по промежуткам
Продолжительность промежутка : 40 мс. (1,00 видеокадр)
Время предзагрузки промежутка : 504 мс.

Скриншот c названием фильма

Скриншоты

-Трейлер
Яндекс.Метрика
Рейтинг@Mail.ru