Казанова 70 / Casanova '70 (Марио Моничелли / Mario Monicelli) [1965 г., драма, комедия, BDRip] DVO

 

Создавать темы 26-Авг-2016 03:57

-Казанова 70 / Casanova '70-- Производство: Италия, Франция, Compagnia Cinematografica Champion, Euro International Film (EIA), Les Films Concordia
Год выпуска: 1965 г.
Жанр: драма, комедия
Продолжительность: 01:55:21Мировая премьера: 20 июля 1965
Перевод: Профессиональный (двухголосый, закадровый)
Режиссер: Марио Моничелли / Mario Monicelli-В ролях: Марчелло Мастроянни, Вирна Лизи, Мариза Мелл, Мишель Мерсье, Энрико Мария Салерно, Лиана Орфей, Гуидо Альберти, Беба Лончар, Мойра Орфей, Маргарет Ли-Описание: Для майора Росси соблазнение являлось обычным и простым занятием, женщины становились легкой добычей в его руках. Но после бурного расставания с одной из подружек, которая в пылу гнева публично называет его импотентом, Андре обнаруживает, что она почти права — он уже не жеребец, готовый к совокуплению при любых обстоятельствах.Теперь он способен вступать в интимную связь с женщиной только когда ему что-то угрожает. Психоаналитик советует перейти к исключительно платоническим отношениям, но современный Казанова предпочитает постоянно пребывать в поисках опасных наслаждений.-
Качество видео: BDRip
Контейнер: AVI
Видео кодек: XviD
Аудио кодек: AC3
Видео: 688x368 (1.87:1), 23.976 fps, XviD build 50 ~2071 kbps avg, 0.34 bit/pixel
Аудио: 48 kHz, AC3 Dolby Digital, 2/0 (L,R) ch, ~192 kbps
Cубтитры: отсутствуют

Рецензия

Ну как мужчине без этого ?Это не кино — это киносокровище. Это не комедия — это непрерывный ржач. К концу фильма мне казалось, что я готов корчиться в судорогах смеха от любого полуслова-полужеста.Все начинается с того, что бравый майор войск НАТО в своих взаимоотношениях с представительницами противоположного пола ведет себя как-то странновато. Чуть позже выясняется, что недавно в один прекрасный (для него разумеется ужасный) день он, как мужчина, потерпел фиаско с одной из своих подружек. С одной стороны — с кем не бывает, с другой стороны — что для мужчины может быть ужаснее. С одной стороны хочется немедленно самому себе привести более чем убедительные доказательства, что данный эпизод всего лишь досадная осечка, с другой стороны — никуда не деться от вполне закономерных опасений. Именно на этом строится психологическая подоплека дальнейшего повествования.Воспоминания о приятном времяпровождении так сладко греют душу и хочется новых и новых самоутверждающих побед, но наш бедный герой (великолепный Марчелло Мастроянни) настолько зациклился в своих сомнениях-переживаниях, что не нашел ничего лучшего как довериться психоаналитику. Полушизанутое (как позже выясняется) светило науки, проведя тестирование, посоветовало одно из двух — или платонические отношения, или интим, сопряженный с риском для жизни.И пошло-поехало. Наставления профессора свято выполняются, но вот только какому из их отдать предпочтение. Разумеется работа хоть и идет на два фронта, но с явным перевесом в пользу последнего.Дальше рассказывать нет смысла. Фильм представлен из набора малосвязанных между собой эпизодов с похождениями новоявленного Казановы. Сделано сочно, красочно, увлекательно, без малейшей пошлости, с соблюдением тонких психологических нюансов.И последнее. Уже давно замечено, что притягательность итальянского кинематографа во многом обусловлена в умении смеяться над собой. Здесь эта традиция соблюдена в полной мере. Спасибо Италия.10 из 10

Media Info

Общее
Полное имя : J:\Казанова 70\Casanova 70.1965.BDRip.[pirat.ca].avi
Формат : AVI
Формат/Информация : Audio Video Interleave
Размер файла : 1,83 Гбайт
Продолжительность : 1 ч. 55 м.
Общий поток : 2272 Кбит/сек
Название фильма : Casanova 70.1965.BDRip.[pirat.ca]
Программа кодирования : VirtualDubMod 1.5.10.3 (build 2550/release)Видео
Идентификатор : 0
Формат : MPEG-4 Visual
Профиль формата : Advanced [email protected]/* */
Параметр BVOP формата : 1
Параметр QPel формата : Нет
Параметр GMC формата : Без точки перехода
Параметр матрицы формата : Default (MPEG)
Идентификатор кодека : XVID
Идентификатор кодека/Подсказка : XviD
Продолжительность : 1 ч. 55 м.
Битрейт : 2071 Кбит/сек
Ширина : 688 пикселей
Высота : 368 пикселей
Соотношение сторон : 1,85:1
Частота кадров : 23,976 (24000/1001) кадра/сек
Цветовое пространство : YUV
Субдискретизация насыщенности : 4:2:0
Битовая глубина : 8 бит
Тип развёртки : Прогрессивная
Метод сжатия : С потерями
Бит/(Пиксели*Кадры) : 0.341
Размер потока : 1,67 Гбайт (91%)
Библиотека кодирования : XviD 1.2.1 (UTC 2008-12-04)Аудио
Идентификатор : 1
Формат : AC-3
Формат/Информация : Audio Coding 3
Расширение режима : CM (complete main)
Параметр Endianness формата : Big
Идентификатор кодека : 2000
Продолжительность : 1 ч. 55 м.
Вид битрейта : Постоянный
Битрейт : 192 Кбит/сек
Каналы : 2 канала
Расположение каналов : Front: L R
Частота : 48,0 КГц
Частота кадров : 31,250 кадров/сек (1536 spf)
Метод сжатия : С потерями
Размер потока : 158 Мбайт (8%)
Выравнивание : Разделение по промежуткам
Продолжительность промежутка : 42 мс. (1,00 видеокадр)
Время предзагрузки промежутка : 500 мс.

Скриншот c названием фильма

Скриншоты

-Трейлер
Яндекс.Метрика
Рейтинг@Mail.ru