[ Сегодня на трекере фрилич! Идет свободное скачивание без начисления Download ]

Следствие с риском для жизни / L'avvertimento (Дамиано Дамиани /Damiano Damiani) [1980 г., детектив, DVDRip] Dub [киностудия имени М. Горького 1982] + Sub (Rus)

 

Создавать темы 26-Авг-2016 03:54

-Следствие с риском для жизни / L'avvertimento-- Производство: Италия, Capital Films
Год выпуска: 1980 г.
Жанр: детектив
Продолжительность: 01:45:00Мировая премьера: 15 августа 1980
Перевод: Профессиональный (полное дублирование) [киностудия имени М. Горького 1982]
Режиссер: Дамиано Дамиани /Damiano Damiani-В ролях: Джулиано Джемма, Мартин Балсам, Джон Карлсен, Гвидо Леонтини, Марчелло Мандо, Франко Одоарди, Джулиан Дженкинс, Лаура Троттер, Джанкарло Занетти, Гуидо Леонтини, Марселло Мэндо, Франко Одоарди, Дедди Саваньоне, Джон Карлсен, Джулиан Дженкинс, Эннио Антонелли, Джеффри Коплстон, Джордано Фальцони, Джулия Фосса, Винсент Джентиле, Джорджо Луччезе, Роберто Малия, Элио Марконато, Ричард МакНамара, Майк Моррис-Описание: Принципиальный комиссар полиции Бареззи неожиданно обнаруживает на своём банковском счету невесть откуда взявшуюся крупную сумму денег. Вскоре он получает анонимный телефонный звонок, где неизвестный голос «рекомендует» ему отработать полученный авансом «гонорар» соответствующим образом. Вскоре Бареззи выясняет, что деньги ему были перечислены за то, чтобы он закрывал глаза на продажность ряда итальянских чиновников из высших эшелонов власти. Он решает прибегнуть к двойной игре и вывести на чистую воду прогнивших политикано, тесно связанных с мафией.-
Качество видео: DVDRip
Контейнер: AVI
Видео кодек: XviD
Аудио кодек: MP3
Видео: 688x384 (1.79:1), 25 fps, XviD build 50 ~1976 kbps avg, 0.30 bit/pixel
Аудио: 48 kHz, MPEG Layer 3, 2 ch, ~128.00 kbps avg
Cубтитры: русские
Формат субтитров: softsub (SRT)
Доп. информация о субтитрах: внешние на непереведённые места

Доп. информация

В оригинале фильм называется «Предупреждение».
В советский прокат картина вышла в чёрно-белом варианте (также как и другой обличительный политический триллер Д. Дамиани «Я боюсь», который имел гораздо больший, культовый успех у советских зрителей) и была подведена на хронометражный стандарт тех времён в полтора часа экранного времени.

Рецензия

1980. ПредупреждениеПравильное название этого фильма — «Предупреждение». И это логично. С предупреждения все начнется — инспектору полиции на счет будет переведена крупная денежная сумма. Это вовсе не благотворительность, а предупреждение. Отказ от подарка будет строго наказан. Как поступит наш герой? Напишет ли рапорт или примет игру, навязывая гангстерам собственную позицию? В поисках аналогии небезызвестного Антибиотика он выйдет на такой уютный близкий круг, определяющий экономику города и жизнь людей. Кому жить и кому умирать, кому садиться в тюрьму, кому богатеть — все решается близким кругом.Джулиано Джемма с самого начала продемонстрирует очень интересный образ — небезразличного мужчины, человека который не готов смиряться с существующим положением вещей. Он не просто бросает вызов криминальной системе, а изобретательно противостоит ей используя все ее слабости. Нужно упомянуть еще и Мартина Болсама, замечательно дополнявшего картинку, находясь в условной тени.В моем понимании именно «Предупреждение» нужно считать настоящим боевиком — реалистичным, страшным, напряженным, с фееричной концовкой. Конечно многим по душе другой финал — когда Шварценеггер или его аналог в конце набирает оружия и устраивает большой ганфайт. Но часто ли мы встречаемся с таким в жизни? А вот герой «Предупреждения» добивается вполне реалистичного результата. Тем самым существенно повышая значимость картины. Это уже не противостояние смелого одиночки перед ветряными мельницами, которое заведомо обречено на неудачу, а системное противоборство. К тому же, когда я вижу счастливую улыбку на лице Джеммы в финале ленты, понимающего все риски, но так ценящего сладость момента — просто не могу поставить фильму меньше, чем10 из 10

Media Info

Общее
Полное имя : J:\Следствие с риском для жизни\Preduprezdenie.1980.DVDRip.[pirat.ca]\Preduprezdenie.1980.DVDRip.[pirat.ca].avi
Формат : AVI
Формат/Информация : Audio Video Interleave
Размер файла : 1,46 Гбайт
Продолжительность : 1 ч. 45 м.
Общий поток : 1990 Кбит/секВидео
Идентификатор : 0
Формат : MPEG-4 Visual
Профиль формата : Advanced [email protected]/* */
Параметр BVOP формата : 2
Параметр QPel формата : Нет
Параметр GMC формата : Без точки перехода
Параметр матрицы формата : Выборочная
Идентификатор кодека : XVID
Идентификатор кодека/Подсказка : XviD
Продолжительность : 1 ч. 45 м.
Битрейт : 1849 Кбит/сек
Ширина : 688 пикселей
Высота : 384 пикселя
Соотношение сторон : 16:9
Частота кадров : 25,000 кадров/сек
Цветовое пространство : YUV
Субдискретизация насыщенности : 4:2:0
Битовая глубина : 8 бит
Тип развёртки : Прогрессивная
Метод сжатия : С потерями
Бит/(Пиксели*Кадры) : 0.280
Размер потока : 1,36 Гбайт (93%)
Библиотека кодирования : XviD 1.2.1 (UTC 2008-12-04)Аудио
Идентификатор : 1
Формат : MPEG Audio
Версия формата : Version 1
Профиль формата : Layer 3
Идентификатор кодека : 55
Идентификатор кодека/Подсказка : MP3
Продолжительность : 1 ч. 44 м.
Продолжительность оригинала : 1 ч. 44 м.
Вид битрейта : Постоянный
Битрейт : 128 Кбит/сек
Каналы : 2 канала
Частота : 48,0 КГц
Метод сжатия : С потерями
Размер потока : 96,1 Мбайт (6%)
Выравнивание : Разделение по промежуткам
Продолжительность промежутка : 24 мс. (0,60 видеокадр)

Скриншот c названием фильма

Скриншоты

Яндекс.Метрика
Рейтинг@Mail.ru