[ Сегодня на трекере фрилич! Идет свободное скачивание без начисления Download ]

Романс Х / Romance (Катрин Брейя / Catherine Breillat) [1999 г., драма, ЭРОТИКА (18+), DVDRip-AVC, 720p] MVO + Sub (Rus)

 

Создавать темы 26-Авг-2016 03:42

-Романс Х / Romance-- Производство: Франция, Flach Film, CB Films, Arte France Cinéma, ...
Год выпуска: 1999 г.
Жанр: драма, ЭРОТИКА (18+)
Продолжительность: 01:34:3Мировая премьера: 14 апреля 1999
Дата выхода DVD: 18 сентября 2008, «Мистерия Звука»
Перевод: Профессиональный (многоголосый, закадровый)
Режиссер: Катрин Брейя / Catherine Breillat-В ролях: Каролин Дюсе, Сагамор Стевенен, Франсуа Берлеан, Рокко Сиффреди, Реза Абуоссен, Эшли Уэннингер, Эмма Кольберти, Фабьен де Жомарон, Карла, Пьер Мофрон, ...-Описание: История сексуальных переживаний молодой школьной учительницы Мари, которая влюблена в Поля, зарабатывающего себе на жизнь модельным бизнесом. Самовлюбленный Поль спит с ней в одной постели, но отказывается заниматься любовью. Его эротическое безразличие толкает ее на безрассудные похождения…-
Качество видео: DVDRip-AVC
Контейнер: MKV
Стандарт разрешения: 720p
Видео кодек: MPEG4 AVC
Аудио кодек: AC3
Видео: 1020x576, 4500 kbps, 25 fps
Аудио: AC-3, 6 ch, 448 kbps
Cубтитры: русские
Формат субтитров: softsub (SRT)
Доп. информация о субтитрах: включаемые

Рецензия

Очень интересный и завораживающий фильм о женщине, которая просто хочет быть любимой. Но ей этого не позволяют. И тогда она решает, что любовь между мужчиной и женщиной — постоянная битва, в которой всеми силами хочет победить. В процессе своих метаний главная героиня предстает перед нами слабой, но в ее слабости заключается колоссальная сила, дающая ей право победить свою главную слабость — бездушного Поля.Весь фильм для меня — одна большая цитата, которую так и хочется запомнить или записать. Но больше всего мне понравился момент, когда Мари становится матерью, говорит: «Создавать жизнь — это прекрасно, а все, что было до этого, не имеет значения».10 из 10

Media Info

Общее
Уникальный идентификатор : 178573600077385972196116184985177881076 (0x8658063CE3D384C8948C31AF3AD2F9F4)
Полное имя : F:\Романс Х\Romance.1999.DVDRip-AVC.[pirat.ca].mkv
Формат : Matroska
Версия формата : Version 2
Размер файла : 3,27 Гбайт
Продолжительность : 1 ч. 34 м.
Общий поток : 4947 Кбит/сек
Дата кодирования : UTC 2016-08-25 13:00:03
Программа кодирования : mkvmerge v5.3.0 ('I could have danced') built on Feb 9 2012 10:38:07
Библиотека кодирования : libebml v1.2.3 + libmatroska v1.3.0Видео
Идентификатор : 1
Формат : AVC
Формат/Информация : Advanced Video Codec
Профиль формата : [email protected]/* */
Параметр CABAC формата : Да
Параметр ReFrames формата : 12 кадров
Идентификатор кодека : V_MPEG4/ISO/AVC
Продолжительность : 1 ч. 34 м.
Битрейт : 4500 Кбит/сек
Ширина : 1020 пикселей
Высота : 576 пикселей
Соотношение сторон : 16:9
Режим частоты кадров : Постоянный
Частота кадров : 25,000 кадров/сек
Цветовое пространство : YUV
Субдискретизация насыщенности : 4:2:0
Битовая глубина : 8 бит
Тип развёртки : Прогрессивная
Бит/(Пиксели*Кадры) : 0.306
Размер потока : 2,91 Гбайт (89%)
Библиотека кодирования : x264 core 146 r2538 121396c
Настройки программы : cabac=1 / ref=12 / deblock=1:-3:-3 / analyse=0x3:0x133 / me=umh / subme=11 / psy=1 / psy_rd=1.00:0.00 / mixed_ref=1 / me_range=32 / chroma_me=1 / trellis=2 / 8x8dct=1 / cqm=0 / deadzone=21,11 / fast_pskip=0 / chroma_qp_offset=-2 / threads=12 / lookahead_threads=2 / sliced_threads=0 / nr=0 / decimate=0 / interlaced=0 / bluray_compat=0 / constrained_intra=0 / bframes=12 / b_pyramid=2 / b_adapt=2 / b_bias=0 / direct=3 / weightb=1 / open_gop=0 / weightp=2 / keyint=250 / keyint_min=25 / scenecut=40 / intra_refresh=0 / rc=2pass / mbtree=0 / bitrate=4500 / ratetol=1.0 / qcomp=0.60 / qpmin=0 / qpmax=69 / qpstep=4 / cplxblur=20.0 / qblur=0.5 / ip_ratio=1.40 / pb_ratio=1.30 / aq=1:0.80
Язык : French
Default : Нет
Forced : НетАудио
Идентификатор : 2
Формат : AC-3
Формат/Информация : Audio Coding 3
Расширение режима : CM (complete main)
Параметр Endianness формата : Big
Идентификатор кодека : A_AC3
Продолжительность : 1 ч. 34 м.
Вид битрейта : Постоянный
Битрейт : 448 Кбит/сек
Каналы : 6 каналов
Расположение каналов : Front: L C R, Side: L R, LFE
Частота : 48,0 КГц
Частота кадров : 31,250 кадров/сек (1536 spf)
Метод сжатия : С потерями
Размер потока : 303 Мбайт (9%)
Заголовок : MVO
Язык : Russian
Default : Нет
Forced : НетТекст
Идентификатор : 3
Формат : UTF-8
Идентификатор кодека : S_TEXT/UTF8
Идентификатор кодека/Информация : UTF-8 Plain Text
Язык : Russian
Default : Нет
Forced : Нет

Скриншот c названием фильма

Скриншоты

-Трейлер
Яндекс.Метрика
Рейтинг@Mail.ru