Sabaton - Stereolux , Nantes, France [2016 г.] (Power Metal) [DVDRip, PAL, 576p]

 

Создавать темы 26-Авг-2016 03:40

-Sabaton - Stereolux Nantes , France-- Год выпуска: 2016 г.
Страна: Falun, Sweden
Жанр: Power Metal
Продолжительность: 01:27:31-Качество видео: DVDRip
Контейнер: MKV
Стандарт разрешения: 576p
Видео кодек: MPEG4 AVC
Аудио кодек: MP3
Видео: : 720 pixels x 576 pixels : 4 146 Kbps : 25.000 fps :
Формат DVD: PAL
Аудио: : 280 Kbps : 2 channels : 48.0 KHz :-

Трэклист

01. The March to War (Intro) [00:00:00]
02. Ghost Division [00:02:00]
03. Far from the Fame [00:06:06]
04. Uprising [00:09:51]
05. Midway [00:15:51]
06. Gott Mit Uns (Swe) [00:20:01]
07. Resist and Bite [00:23:27]
08. Wolfpack [00:28:02]
09. Dominium Maris Baltici / The Lion From The N...[00:33:08]
10. Carolus Rex [00:38:40]
11. Swedish Pagans [00:45:28]
12. Soldier of 3 Armies [00:50:20]
13. Attero Dominatus [00:54:32]
14. The Art of War [00:58:30]
15. Wind of Change [01:03:42]
16. To Hell and Back [01:05:04]
17. Night Witches [01:09:30]
18. Primo Victoria [01:13:55]
19. Metal Cr e / Credits [01:19:55] [01:27:00]
-

Media Info

General
UniqueID : 210514738448481021831848132238325665534 (0x9E5FA9F22846F03D938815C095B14EFE)
Complete name : H:\sabaton-stereolux_nantes_france_(2016-01-24)-dvdrip-retail-x264-2016-srp.mkv
Format : Matroska
File size : 2.76 GiB
Duration : 1h 27mn
Overall bit rate : 4 516 Kbps
Encoded date : UTC 2016-08-23 09:59:25
Writing application : mkvmerge v9.2.0 ('Photograph') 64bit
Writing library : libebml v1.3.3 + libmatroska v1.4.4Video
ID : 1
Format : AVC
Format/Info : Advanced Video Codec
Format profile : [email protected]/* */
Format settings, CABAC : Yes
Format settings, ReFrames : 5 frames
Format settings, GOP : M=4, N=16
Codec ID : V_MPEG4/ISO/AVC
Duration : 1h 27mn
Bit rate : 4 146 Kbps
Width : 720 pixels
Height : 576 pixels
Display aspect ratio : 16:9
Original display aspect ratio : 16:9
Frame rate : 25.000 fps
Standard : PAL
Color space : YUV
Chroma subsampling : 4:2:0
Bit depth : 8 bits
Scan type : Progressive
Bits/(Pixel*Frame) : 0.400
Stream size : 2.53 GiB (92%)
Writing library : x264 core 148 r2705 3f5ed56
Encoding settings : cabac=1 / ref=5 / deblock=1:-1:-1 / analyse=0x1:0x131 / me=umh / subme=9 / psy=1 / psy_rd=1.00:0.00 / mixed_ref=1 / me_range=24 / chroma_me=1 / trellis=1 / 8x8dct=0 / cqm=0 / deadzone=21,11 / fast_pskip=0 / chroma_qp_offset=-2 / threads=12 / lookahead_threads=3 / sliced_threads=0 / nr=0 / decimate=1 / interlaced=0 / bluray_compat=0 / constrained_intra=0 / bframes=16 / b_pyramid=2 / b_adapt=2 / b_bias=0 / direct=3 / weightb=1 / open_gop=0 / weightp=2 / keyint=250 / keyint_min=25 / scenecut=40 / intra_refresh=0 / rc_lookahead=60 / rc=crf / mbtree=1 / crf=16.0 / qcomp=0.60 / qpmin=0 / qpmax=69 / qpstep=4 / ip_ratio=1.40 / aq=1:1.00
Language : EnglishAudio
ID : 2
Format : MPEG Audio
Format version : Version 1
Format profile : Layer 3
Mode : Joint stereo
Mode extension : MS Stereo
Codec ID : A_MPEG/L3
Codec ID/Hint : MP3
Duration : 1h 27mn
Bit rate mode : Variable
Bit rate : 280 Kbps
Minimum bit rate : 32.0 Kbps
Channel(s) : 2 channels
Sampling rate : 48.0 KHz
Compression mode : Lossy
Stream size : 175 MiB (6%)
Writing library : LAME3.98r
Encoding settings : -m j -V 0 -q 0 -lowpass 19.5 --vbr-new -b 32Menu
00:00:00.000 : en:The March to War (Intro)
00:02:00.000 : en:Ghost Division
00:06:06.240 : en:Far from the Fame
00:09:51.840 : en:Uprising
00:15:51.840 : en:Midway
00:20:01.440 : en:Gott Mit Uns (Swe)
00:23:27.840 : en:Resist and Bite
00:28:02.400 : en:Wolfpack
00:33:08.160 : en:Dominium Maris Baltici / The Lion From The North
00:38:40.800 : en:Carolus Rex
00:45:28.800 : en:Swedish Pagans
00:50:20.160 : en:Soldier of 3 Armies
00:54:32.160 : en:Attero Dominatus
00:58:30.240 : en:The Art of War
01:03:42.240 : en:Wind of Change
01:05:04.800 : en:To Hell and Back
01:09:30.240 : en:Night Witches
01:13:55.200 : en:Primo Victoria
01:19:55.200 : en:Metal Crüe / Credits
-

Скриншоты

--
Яндекс.Метрика
Рейтинг@Mail.ru