Снайпер / American Sniper (2014) BDRip [H.264/1080p-LQ]

 

Создавать темы 25-Авг-2016 10:23

- Снайпер / American Sniper (2014) BDRip [H.264/1080p-LQ] «Под прицелом у смерти»- Производство: США / Warner Bros., Village Roadshow Pictures
Жанр: боевик, триллер, драма, военный, биография, история
Режиссер: Клинт Иствуд
Актеры: Брэдли Купер, Сиенна Миллер, Кайл Галлнер, Коул Конис, Бен Рид, Элиз Робертсон, Люк Саншайн, Трой Винсент, Брэндон Сальгадо, Кейр О’Доннелл
Описание:
Экранизация мемуаров «морского котика» из Техаса Криса Кайла, который служил снайпером в Ираке и стал рекордсменом по числу убитых солдат противника, за что иракцы прозвали его дьяволом. Кроме самой войны, фильм рассказывает о воспоминаниях жены Криса, которая была свидетелем растущей привязанности мужа к его сослуживцам.
Возраст: 18+ (зрителям, достигшим 18 лет. запрещено для детей)
Рейтинг MPAA: R (лицам до 17 лет обязательно присутствие взрослого)
Релиз от: StarCinema
Продолжительность: 02:12:39
Качество видео: BDRip [thumb]https://www.sendspace.com/file/2lyl9b[/thumb]
Перевод: Дублированный (Лицензия BD СEЕ)
Субтитры: Русские (forced)
Видео: AVC/H.264, 1920x800 (2.40:1), ~4269 Kbps
Аудио: Русский, AC3, 6 ch, 448 Kbps, CBR

Mediainfo:

Общее
Уникальный идентификатор                 : 246322168407769929272838840953236765313 (0xB94FEC8BF0412BF58292D7A9469A3A81)
Формат                                   : Matroska
Версия формата                           : Version 4 / Version 2
Размер файла                             : 4,37 Гбайт
Продолжительность                        : 2 ч. 12 м.
Общий поток                              : 4719 Кбит/сек
Дата кодирования                         : UTC 2015-10-22 13:54:35
Программа кодирования                    : mkvmerge v8.3.0 ('Over the Horizon') 64bit
Библиотека кодирования                   : libebml v1.3.1 + libmatroska v1.4.2
Видео
Идентификатор                            : 1
Формат                                   : AVC
Формат/Информация                        : Advanced Video Codec
Профиль формата                          : [url=mailto:[email protected]][email protected][/url]
Параметр CABAC формата                   : Да
Параметр ReFrames формата                : 5 кадров
Идентификатор кодека                     : V_MPEG4/ISO/AVC
Продолжительность                        : 2 ч. 12 м.
Битрейт                                  : 4269 Кбит/сек
Ширина                                   : 1920 пикселей
Высота                                   : 800 пикселей
Соотношение сторон                       : 2,40:1
Режим частоты кадров                     : Постоянный
Частота кадров                           : 23,976 (24000/1001) кадра/сек
Цветовое пространство                    : YUV
Субдискретизация насыщенности            : 4:2:0
Битовая глубина                          : 8 бит
Тип развёртки                            : Прогрессивная
Бит/(Пиксели*Кадры)                      : 0.116
Размер потока                            : 3,96 Гбайт (90%)
Заголовок                                : Снайпер / American Sniper [2014]
Библиотека кодирования                   : x264 core 146 r2538 121396c
Настройки программы                      : cabac=1 / ref=5 / deblock=1:-1:-1 / analyse=0x3:0x113 / me=umh / subme=10 / psy=1 / psy_rd=1.00:0.00 / mixed_ref=1 / me_range=40 / chroma_me=1 / trellis=2 / 8x8dct=1 / cqm=0 / deadzone=21,11 / fast_pskip=0 / chroma_qp_offset=-2 / threads=3 / lookahead_threads=1 / sliced_threads=0 / nr=0 / decimate=1 / interlaced=0 / bluray_compat=0 / constrained_intra=0 / bframes=8 / b_pyramid=2 / b_adapt=2 / b_bias=0 / direct=3 / weightb=1 / open_gop=0 / weightp=2 / keyint=250 / keyint_min=23 / scenecut=40 / intra_refresh=0 / rc_lookahead=60 / rc=2pass / mbtree=0 / bitrate=4269 / ratetol=1.0 / qcomp=0.60 / qpmin=0 / qpmax=69 / qpstep=4 / cplxblur=20.0 / qblur=0.5 / vbv_maxrate=14000 / vbv_bufsize=14000 / nal_hrd=none / filler=0 / ip_ratio=1.40 / pb_ratio=1.30 / aq=2:1.00
Язык                                     : English
Default                                  : Да
Forced                                   : Нет
Аудио
Идентификатор                            : 2
Формат                                   : AC-3
Формат/Информация                        : Audio Coding 3
Расширение режима                        : CM (complete main)
Параметр Endianness формата              : Big
Идентификатор кодека                     : A_AC3
Продолжительность                        : 2 ч. 12 м.
Вид битрейта                             : Постоянный
Битрейт                                  : 448 Кбит/сек
Каналы                                   : 6 каналов
Расположение каналов                     : Front: L C R, Side: L R, LFE
Частота                                  : 48,0 КГц
Частота кадров                           : 31,250 кадров/сек (1536 spf)
Метод сжатия                             : С потерями
Размер потока                            : 425 Мбайт (9%)
Заголовок                                : Дубляж [Лицензия]
Язык                                     : Russian
Default                                  : Да
Forced                                   : Нет
Текст
Идентификатор                            : 3
Формат                                   : PGS
Режим смешивания                         : zlib
Идентификатор кодека                     : S_HDMV/PGS
Идентификатор кодека/Информация          : Picture based subtitle format used on BDs/HD-DVDs
Продолжительность                        : 2 ч. 7 м.
Битрейт                                  : 114 бит/сек
Count of elements                        : 26
Размер потока                            : 108 Кбайт (0%)
Заголовок                                : Forced
Язык                                     : Russian
Default                                  : Да
Forced                                   : Нет
Скриншоты:
Яндекс.Метрика
Рейтинг@Mail.ru