[ Сегодня на трекере фрилич! Идет свободное скачивание без начисления Download ]

Путь на юг / Southbound (2015) HDRip [VO]

 

Создавать темы 25-Авг-2016 10:23

- Путь на юг / Southbound (2015) HDRip - Производство: США
Жанр: Триллер, Фантастика, Ужасы
Режиссер: Роксанна Бенжамин, Дэвид Брукнер, Патрик Хорват
Продюсер: Роксанна Бенжамин, Крис Хардинг, Брэд Миска
Актеры: Кейт Бихан, Мэттью Беттинелли, Сьюзэн Бурк, Зои Купер, Джералд Дауни, Карла Дродж, Ларри Фессенден, Дэна Гулд, Хасси Харрисон, Дэйв Джонсон
Описание:
Пустынный участок дороги, усталые путники — двое мужчин, бегущих от своего прошлого, группа на пути к следующему концерту, человек пытающийся попасть домой, брат в поисках давно потерянной сестры и семьи на отдыхе — вынуждены противостоять своим страхам и самым темным тайнам, чтобы раскаяться на дороге.
Дата мировой премьеры: 16 сентября 2015
Продолжительность: 01:29:02
Качество видео: HDRip [thumb]http://sendfile.su/1209303[/thumb]
Перевод: Одноголосый закадровый, любительский
Озвучка / Автор перевода: Васька Куролесов / Enigma
Вид субтитров: Отсутствуют
Видео: Xvid, 720x304, ~2159 kbps
Аудио: AC3, 2 ch, 192 kbps, CBR

Mediainfo:

Общее
Полное имя                               : D:\KINO 3\2 JANUR\Puth.Na.Yug.2015.avi
Формат                                   : AVI
Формат/Информация                        : Audio Video Interleave
Размер файла                             : 1,47 Гбайт
Продолжительность                        : 1 ч. 29 м.
Общий поток                              : 2360 Кбит/сек
Видео
Идентификатор                            : 0
Формат                                   : MPEG-4 Visual
Профиль формата                          : Advanced [email protected]
Параметр BVOP формата                    : 2
Параметр QPel формата                    : Нет
Параметр GMC формата                     : Без точки перехода
Параметр матрицы формата                 : Default (H.263)
Идентификатор кодека                     : XVID
Идентификатор кодека/Подсказка           : XviD
Продолжительность                        : 1 ч. 29 м.
Битрейт                                  : 2159 Кбит/сек
Ширина                                   : 720 пикселей
Высота                                   : 304 пикселя
Соотношение сторон                       : 2,35:1
Частота кадров                           : 23,976 кадра/сек
Цветовое пространство                    : YUV
Субдискретизация насыщенности            : 4:2:0
Битовая глубина                          : 8 бит
Тип развёртки                            : Прогрессивная
Метод сжатия                             : С потерями
Бит/(Пиксели*Кадры)                      : 0.411
Размер потока                            : 1,34 Гбайт (91%)
Библиотека кодирования                   : XviD 67
Аудио
Идентификатор                            : 1
Формат                                   : AC-3
Формат/Информация                        : Audio Coding 3
Расширение режима                        : CM (complete main)
Параметр Endianness формата              : Big
Идентификатор кодека                     : 2000
Продолжительность                        : 1 ч. 29 м.
Вид битрейта                             : Постоянный
Битрейт                                  : 192 Кбит/сек
Каналы                                   : 2 канала
Расположение каналов                     : Front: L R
Частота                                  : 48,0 КГц
Битовая глубина                          : 16 бит
Метод сжатия                             : С потерями
Размер потока                            : 122 Мбайт (8%)
Выравнивание                             : Разделение по промежуткам
Продолжительность промежутка             : 42  мс. (1,00 видеокадр)
Время предзагрузки промежутка            : 500  мс.
Скриншоты:
Время раздачи: С 09:00 до 23:30 до 5 скачавших (до появления первых 3-5 скачавших)
Яндекс.Метрика
Рейтинг@Mail.ru