[ Сегодня на трекере фрилич! Идет свободное скачивание без начисления Download ]

Центурион / Centurion (2010) BDRip [H.264/1080p-LQ]

 

Создавать темы 25-Авг-2016 10:23

- Центурион / Centurion (2010) BDRip [H.264/1080p-LQ] «Сражайся или умри»- Производство: Великобритания, Франция / Celador Films
Жанр: боевик, триллер, драма, приключения, военный, история
Режиссер: Нил Маршалл
Актеры: Майкл Фассбендер, Ольга Куриленко, Доминик Уэст, Джей Джей Филд, Андреас Виснивски, Дэйв Леджено, Аксель Кэролин, Даффер Лабидин, Ли Росс, Дэвид Моррисси
Описание:
Действие разворачивается в 117 году. Главный герой — Квинтус Диас — единственный человек, уцелевший после налёта пиктов на пограничную римскую крепость. Вместе с легендарным Девятым легионом он отправляется на север, чтобы стереть с лица земли пиктов и уничтожить их предводителя, Горлакона.
Возраст: 18+ (зрителям, достигшим 18 лет. запрещено для детей)
Рейтинг MPAA: R (лицам до 17 лет обязательно присутствие взрослого)
Релиз от: StarCinema
Продолжительность: 01:37:30
Качество видео: BDRip
Перевод: Дублированный (Лицензия BD RUS)
Видео: AVC/H.264, 1920x816 (2.35:1), ~5970 Kbps
Аудио: Русский, AC3, 6 ch, 448 Kbps, CBR

MI

Общее
Уникальный идентификатор : 223254398038743842205826797029155990047 (0xA7F53BA880AD977D886ACDF3F484EA1F)
Формат : Matroska
Версия формата : Version 4 / Version 2
Размер файла : 4,37 Гбайт
Продолжительность : 1 ч. 37 м.
Общий поток : 6420 Кбит/сек
Дата кодирования : UTC 2016-04-16 15:04:34
Программа кодирования : mkvmerge v9.0.1 ('Obstacles') 64bit
Библиотека кодирования : libebml v1.3.3 + libmatroska v1.4.4
Видео
Идентификатор : 1
Формат : AVC
Формат/Информация : Advanced Video Codec
Профиль формата : [url=mailto:[email protected]][email protected][/url]
Параметр CABAC формата : Да
Параметр ReFrames формата : 5 кадров
Идентификатор кодека : V_MPEG4/ISO/AVC
Продолжительность : 1 ч. 37 м.
Битрейт : 5970 Кбит/сек
Ширина : 1920 пикселей
Высота : 816 пикселей
Соотношение сторон : 2,35:1
Режим частоты кадров : Постоянный
Частота кадров : 23,976 (24000/1001) кадра/сек
Цветовое пространство : YUV
Субдискретизация насыщенности : 4:2:0
Битовая глубина : 8 бит
Тип развёртки : Прогрессивная
Бит/(Пиксели*Кадры) : 0.159
Размер потока : 4,07 Гбайт (93%)
Библиотека кодирования : x264 core 146 r2538 121396c
Настройки программы : cabac=1 / ref=5 / deblock=1:-1:-1 / analyse=0x3:0x113 / me=umh / subme=11 / psy=1 / psy_rd=1.00:0.00 / mixed_ref=1 / me_range=32 / chroma_me=1 / trellis=2 / 8x8dct=1 / cqm=0 / deadzone=21,11 / fast_pskip=0 / chroma_qp_offset=-2 / threads=3 / lookahead_threads=1 / sliced_threads=0 / nr=0 / decimate=1 / interlaced=0 / bluray_compat=0 / constrained_intra=0 / bframes=8 / b_pyramid=2 / b_adapt=2 / b_bias=0 / direct=3 / weightb=1 / open_gop=0 / weightp=2 / keyint=250 / keyint_min=23 / scenecut=40 / intra_refresh=0 / rc_lookahead=60 / rc=2pass / mbtree=0 / bitrate=5970 / ratetol=1.0 / qcomp=0.60 / qpmin=0 / qpmax=69 / qpstep=4 / cplxblur=20.0 / qblur=0.5 / vbv_maxrate=14000 / vbv_bufsize=14000 / nal_hrd=none / filler=0 / ip_ratio=1.40 / pb_ratio=1.30 / aq=2:1.00
Язык : English
Default : Да
Forced : Нет
Цветовой диапазон : Limited
Основные цвета : Generic film
Коэффициенты матрицы : YCgCo
Аудио
Идентификатор : 2
Формат : AC-3
Формат/Информация : Audio Coding 3
Расширение режима : CM (complete main)
Параметр Endianness формата : Big
Идентификатор кодека : A_AC3
Продолжительность : 1 ч. 37 м.
Вид битрейта : Постоянный
Битрейт : 448 Кбит/сек
Каналы : 6 каналов
Расположение каналов : Front: L C R, Side: L R, LFE
Частота : 48,0 КГц
Частота кадров : 31,250 кадров/сек (1536 spf)
Метод сжатия : С потерями
Размер потока : 312 Мбайт (7%)
Заголовок : Дубляж
Язык : Russian
Default : Да
Forced : Нет
Полная русская локализация.
Скриншоты:
Яндекс.Метрика
Рейтинг@Mail.ru