[ Сегодня на трекере фрилич! Идет свободное скачивание без начисления Download ]

Соседи. На тропе войны 2 / Neighbors 2: Sorority Rising (Николас Столлер / Nicholas Stoller) [2016 г., комедия, BDRip, 720p] Dub [iTunes]

 

Создавать темы 24-Авг-2016 05:15

-Соседи. На тропе войны 2 / Neighbors 2: Sorority Rising-- Производство: США, Good Universe, Point Grey Pictures, ...
Год выпуска: 2016 г.
Жанр: комедия
Продолжительность: 01:32:23Мировая премьера: 26 апреля 2016
Российская премьера: 23 июня 2016, «UPI»
Перевод: Профессиональный (полное дублирование) [iTunes]
Режиссер: Николас Столлер / Nicholas Stoller-В ролях: Сет Роген, Зак Эфрон, Роуз Бирн, Хлоя Грейс Морец, Айк Баринхолц, Кирси Клемонс, Дэйв Франко, Джеррод
Кармайкл, Кристофер Минц-Плассе, Бини Фелдштейн-Описание: На этот раз в дом по соседству с Маком и Келли въезжает университетский женский клуб. Чтобы разобраться с новыми соседями, которые не дают им покоя, Мак и Келли решают обратиться за помощью к их бывшему врагу — Тедди Сандерсу.-
Качество видео: BDRip
Контейнер: MKV
Стандарт разрешения: 720p
Видео кодек: MPEG4 AVC
Аудио кодек: AC3
Видео: 5258 Кбит/с, 1280x536, 23,976 (24000/1001) кадра/сек
Аудио: AC3, 6 ch, 384 Кбит/с, 48,0 КГц
Cубтитры: отсутствуют

Рецензия

Как успокоить девочек-подростковУ Мака (Сет Роген) и Келли (Роуз Бирн) все хорошо, подрастает дочка Стелла (Зоя и Элиз Варгас), они ждут пополнения в семействе и хотят переехать в дом побольше. Необходимо продать свое жилище. И когда только находятся покупатели, случается непоправимое — в дом по-соседству въезжает сестринство во главе с девушкой Шелби (Хлоя Грейс Морец). Молодые оторвы грозятся уничтожить все планы супругов по переезду. Но им на помощь приходит опытный тусовщик, их бывший сосед Тедди Сандерс (Зак Эфрон). Вместе им придется одолеть очередную молодежную тусовку, которая кидает стаканчики пунша на их газон.Николас Столлер не отходит от своего режиссерского амплуа. Очередной фильм с большим количеством пошлых шуток и неприличных сцен. Порой кажется, что для американского кинематографа нет совсем ничего святого… Маленькие дети, фаллоимитаторы, использованные женские тампоны — все смешалось в доме семьи Рэндер. Но за всем этим все-таки стоит некоторый сюжет и мораль. Конечно каждому подростку нужны родители, совет и поддержка, иногда только сами родители об этом забывают. Умение договариваться — необходимая каждому черта.Подобный юмор может показаться зрителю слишком непотребным, но в картине есть некоторая отдушина — это милые сцены с детьми и рассуждения героев о том, как же сложно быть родителями. Есть в фильме и классная танцевальная музыка, что хочется танцевать вместе с обществом Капа Ню.Если вы смотрели первую часть, то уже должны быть знакомы с героями. Сет Роген — непутевый отец, а Роуз Бирн — непутёвая мать, но вместе они готовы все сделать для детей. Зак Эфрон здесь уже как бы повзрослевший Тедди, в котором все же остался задор братства. Почти все его фильмы являются провальными, иногда в кино надо играть не только кубиками… Хлоя Грейс Морец хорошо влилась в картину, кто лучше «Убивашки» смог бы сыграть такую оторву-студентку? Приятно было снова увидеть Дэйва Франко, Айка Баринхолца и других актеров из первой части.Фильм легко смотрится, у него небольшой хронометраж. Хорошее кино для просмотра в большой дружеской компании. Хоть одна шутка, но вам точно должна понравится. Это кино, на которое стоит идти поклонникам первой части «Соседей», «Побег из Вегаса», «Немножко женаты» и т. д. В общем, тех фильмов, которые когда-то запустил «Мальчишник в Вегасе», и которые каждый год в больших количествах штампует Голливуд.Почему-то эта картина, несмотря на всю ее нелепость и не очень качественный юмор, мне понравилась. Надеюсь на продолжение. Трилогия будет вполне логична для этой истории.7 из 10

Media Info

Общее
Уникальный идентификатор : 237707838755628380661603412920227749712 (0xB2D4DD4DBE0904069DF1D63AF1C25F50)
Полное имя : J:\Соседи. На тропе войны 2\Neighbors 2.Sorority Rising.2016.BDRip.720p.[pirat.ca].mkv
Формат : Matroska
Версия формата : Version 2
Размер файла : 3,64 Гбайт
Продолжительность : 1 ч. 32 м.
Общий поток : 5643 Кбит/сек
Дата кодирования : UTC 2016-08-23 14:55:31
Программа кодирования : mkvmerge v5.3.0 ('I could have danced') built on Feb 9 2012 10:38:07
Библиотека кодирования : libebml v1.2.3 + libmatroska v1.3.0Видео
Идентификатор : 1
Формат : AVC
Формат/Информация : Advanced Video Codec
Профиль формата : [email protected]/* */
Параметр CABAC формата : Да
Параметр ReFrames формата : 5 кадров
Идентификатор кодека : V_MPEG4/ISO/AVC
Продолжительность : 1 ч. 32 м.
Битрейт : 5258 Кбит/сек
Ширина : 1280 пикселей
Высота : 536 пикселей
Соотношение сторон : 2,40:1
Режим частоты кадров : Постоянный
Частота кадров : 23,976 (24000/1001) кадра/сек
Цветовое пространство : YUV
Субдискретизация насыщенности : 4:2:0
Битовая глубина : 8 бит
Тип развёртки : Прогрессивная
Бит/(Пиксели*Кадры) : 0.320
Размер потока : 3,32 Гбайт (91%)
Библиотека кодирования : x264 core 148 r2705 3f5ed56
Настройки программы : cabac=1 / ref=5 / deblock=1:-3:-3 / analyse=0x3:0x113 / me=umh / subme=8 / psy=1 / psy_rd=1.00:0.00 / mixed_ref=1 / me_range=16 / chroma_me=1 / trellis=1 / 8x8dct=1 / cqm=0 / deadzone=21,11 / fast_pskip=1 / chroma_qp_offset=-2 / threads=12 / lookahead_threads=2 / sliced_threads=0 / nr=0 / decimate=1 / interlaced=0 / bluray_compat=0 / constrained_intra=0 / bframes=3 / b_pyramid=2 / b_adapt=2 / b_bias=0 / direct=3 / weightb=1 / open_gop=0 / weightp=2 / keyint=240 / keyint_min=24 / scenecut=40 / intra_refresh=0 / rc_lookahead=50 / rc=2pass / mbtree=1 / bitrate=5258 / ratetol=1.0 / qcomp=0.60 / qpmin=0 / qpmax=69 / qpstep=4 / cplxblur=20.0 / qblur=0.5 / ip_ratio=1.40 / aq=3:0.80
Default : Да
Forced : Нет
Statistics Tags Issue : mkvmerge v8.2.0 ('World of Adventure') 64bit 2016-08-22 09:34:53 / mkvmerge v5.3.0 ('I could have danced') built on Feb 9 2012 10:38:07 2016-08-23 14:55:31
FromStats_BitRate : 5257244
FromStats_Duration : 01:32:23.830000000
FromStats_FrameCount : 132919
FromStats_StreamSize : 3643158500Аудио
Идентификатор : 2
Формат : AC-3
Формат/Информация : Audio Coding 3
Расширение режима : CM (complete main)
Параметр Endianness формата : Big
Идентификатор кодека : A_AC3
Продолжительность : 1 ч. 32 м.
Вид битрейта : Постоянный
Битрейт : 384 Кбит/сек
Каналы : 6 каналов
Расположение каналов : Front: L C R, Side: L R, LFE
Частота : 48,0 КГц
Частота кадров : 31,250 кадров/сек (1536 spf)
Метод сжатия : С потерями
Размер потока : 254 Мбайт (7%)
Default : Да
Forced : Нет
Statistics Tags Issue : mkvmerge v8.2.0 ('World of Adventure') 64bit 2016-08-22 09:34:53 / mkvmerge v5.3.0 ('I could have danced') built on Feb 9 2012 10:38:07 2016-08-23 14:55:31
FromStats_BitRate : 384000
FromStats_Duration : 01:32:22.752000000
FromStats_FrameCount : 173211
FromStats_StreamSize : 266052096Меню
00:00:00.000 : en:00:00:00.000
00:06:30.890 : en:00:06:30.890
00:09:50.381 : en:00:09:50.381
00:13:05.535 : en:00:13:05.535
00:17:37.890 : en:00:17:37.890
00:22:13.082 : en:00:22:13.082
00:27:34.278 : en:00:27:34.278
00:31:54.454 : en:00:31:54.454
00:38:36.022 : en:00:38:36.022
00:44:43.222 : en:00:44:43.222
00:50:42.039 : en:00:50:42.039
00:54:32.811 : en:00:54:32.811
01:00:54.609 : en:01:00:54.609
01:04:14.684 : en:01:04:14.684
01:08:26.644 : en:01:08:26.644
01:12:54.370 : en:01:12:54.370
01:16:34.423 : en:01:16:34.423
01:20:45.215 : en:01:20:45.215
01:23:18.994 : en:01:23:18.994
01:26:03.700 : en:01:26:03.700

Скриншот c названием фильма

Скриншоты

-Трейлер
Яндекс.Метрика
Рейтинг@Mail.ru