(Power Metal) Sabaton - The Last Stand-(Limited Edition) - 2016 [FLAC, image+.cue, lossless]

 

Создавать темы 22-Авг-2016 05:07

-Sabaton - The Last Stand-(Limited Edition)-- Год издания: 2016
Страна: Falun, Sweden
Жанр: Power Metal
Продолжительность: 00:44:55-Лейбл издания: Nuclear Blast Records
Тип альбома: Master
Страна-выпуска диска: August 19th, 2016 Germany
Номер по каталогу: [27361-37340]
Формат: FLAC
Битрейт аудио: lossless
Тип рипа: image+.cue
Наличие сканов в содержимом раздачи: да-

Трэклист

01. Sparta
02. Last Dying Breath
03. Blood of Bannockburn
04. Diary of an Unknown Soldier
05. The Lost Battalion
06. Rorke's Drift
07. The Last Stand
08. Hill 3234
09. Shiroyama
10. Winged Hussars
11. The Last Battle
12. Camouflage (Bonus Track)
13. All Guns Blazing (Bonus Track)
-

Лог создания рипа

Exact Audio Copy V1.1 from 23. June 2015EAC extraction logfile from 15. August 2016, 22:18Sabaton / The Last Stand (Limited Edition)Used drive : ATAPI iHAS122 W Adapter: 2 ID: 0Read mode : Secure
Utilize accurate stream : Yes
Defeat audio cache : Yes
Make use of C2 pointers : NoRead offset correction : 48
Overread into Lead-In and Lead-Out : No
Fill up missing offset samples with silence : Yes
Delete leading and trailing silent blocks : No
Null samples used in CRC calculations : Yes
Used interface : Installed external ASPI interfaceUsed output format : User Defined Encoder
Selected bitrate : 1024 kBit/s
Quality : High
Add ID3 tag : No
Command line compressor : C:\Program Files\FLAC\flac.exe
Additional command line options : -V -8 -T "Date=%year%" -T "Genre=%genre%" -T"COMMENT=Ripped by Ilijan" -8 -V %source%TOC of the extracted CD Track | Start | Length | Start sector | End sector
---------------------------------------------------------
1 | 0:00.00 | 4:25.25 | 0 | 19899
2 | 4:25.25 | 3:26.25 | 19900 | 35374
3 | 7:51.50 | 2:57.17 | 35375 | 48666
4 | 10:48.67 | 0:51.53 | 48667 | 52544
5 | 11:40.45 | 3:39.47 | 52545 | 69016
6 | 15:20.17 | 3:28.59 | 69017 | 84675
7 | 18:49.01 | 3:58.39 | 84676 | 102564
8 | 22:47.40 | 3:31.04 | 102565 | 118393
9 | 26:18.44 | 3:36.12 | 118394 | 134605
10 | 29:54.56 | 3:53.49 | 134606 | 152129
11 | 33:48.30 | 3:12.36 | 152130 | 166565
12 | 37:00.66 | 3:56.03 | 166566 | 184268
13 | 40:56.69 | 3:58.55 | 184269 | 202173Range status and errorsSelected range Filename D:\ilко\Sabaton - The Last Stand (Limited Edition).wav Peak level 100.0 %
Extraction speed 3.7 X
Range quality 100.0 %
Test CRC CBD3039C
Copy CRC CBD3039C
Copy OKNo errors occurredAccurateRip summaryTrack 1 not present in database
Track 2 not present in database
Track 3 not present in database
Track 4 not present in database
Track 5 not present in database
Track 6 not present in database
Track 7 not present in database
Track 8 not present in database
Track 9 not present in database
Track 10 not present in database
Track 11 not present in database
Track 12 not present in database
Track 13 not present in databaseNone of the tracks are present in the AccurateRip databaseEnd of status report---- CUETools DB Plugin V2.1.6[CTDB TOCID: ymRsT5bdvnT06lfWYchznXBvfEk-] disk not present in database
Submit result: ymRsT5bdvnT06lfWYchznXBvfEk- has been uploaded==== Log checksum 0651F5E5B036AA893C354CCFF974590F70EE0766733B1DD0454DFCD4744B8498 ====
-

Индексная карта (non-compilant .cue)

REM GENRE "Power Metal"
REM DATE 2016
REM DISCID 9E0A870D
REM COMMENT "ExactAudioCopy v1.1"
PERFORMER "Sabaton"
TITLE "The Last Stand (Limited Edition)"
FILE "Sabaton - The Last Stand (Limited Edition).flac" WAVE
TRACK 01 AUDIO
TITLE "Sparta"
PERFORMER "Sabaton"
INDEX 01 00:00:00
TRACK 02 AUDIO
TITLE "Last Dying Breath"
PERFORMER "Sabaton"
INDEX 00 04:24:25
INDEX 01 04:25:25
TRACK 03 AUDIO
TITLE "Blood Of Bannockburn"
PERFORMER "Sabaton"
INDEX 00 07:49:50
INDEX 01 07:51:50
TRACK 04 AUDIO
TITLE "Diary Of An Unknown Soldier"
PERFORMER "Sabaton"
INDEX 00 10:46:67
INDEX 01 10:48:67
TRACK 05 AUDIO
TITLE "The Lost Battalion"
PERFORMER "Sabaton"
INDEX 01 11:40:45
TRACK 06 AUDIO
TITLE "Rorke's Drift"
PERFORMER "Sabaton"
INDEX 00 15:19:17
INDEX 01 15:20:17
TRACK 07 AUDIO
TITLE "The Last Stand"
PERFORMER "Sabaton"
INDEX 00 18:48:01
INDEX 01 18:49:01
TRACK 08 AUDIO
TITLE "Hill 3234"
PERFORMER "Sabaton"
INDEX 00 22:45:40
INDEX 01 22:47:40
TRACK 09 AUDIO
TITLE "Shiroyama"
PERFORMER "Sabaton"
INDEX 00 26:17:44
INDEX 01 26:18:44
TRACK 10 AUDIO
TITLE "Winged Hussars"
PERFORMER "Sabaton"
INDEX 00 29:52:56
INDEX 01 29:54:56
TRACK 11 AUDIO
TITLE "The Last Battle"
PERFORMER "Sabaton"
INDEX 00 33:46:30
INDEX 01 33:48:30
TRACK 12 AUDIO
TITLE "Camouflage (Bonus Track)"
PERFORMER "Sabaton"
INDEX 01 37:00:66
TRACK 13 AUDIO
TITLE "All Guns Blazing (Bonus Track)"
PERFORMER "Sabaton"
INDEX 01 40:56:69
-

Скриншот спектра частот

-
Яндекс.Метрика
Рейтинг@Mail.ru