[ Сегодня на трекере фрилич! Идет свободное скачивание без начисления Download ]

Фантазия / Fantasia (Джеймс Алгар, Сэмюэл Армстронг, Форд Биби)[1940,Музыка, мультфильм, фэнтези, семейный, полнометражный, динозавры HDRip-AVC] от ExKinoRay | P1

 

Создавать темы 03-Янв-2014 20:15

Информация о фильме
Название: Фантазия
Оригинальное название: Fantasia
Год выхода: 1940
Жанр: Музыка, мультфильм, фэнтези, семейный, полнометражный, динозавры
Режиссер: Джеймс Алгар, Сэмюэл Армстронг, Форд Биби
В ролях: Леопольд Стоковски, Димс Тейлор, Кори Бертон, Уолт Дисней, Джеймс МакДональд, Пол Дж. Смит
О фильме:
Необычайный, поражающий воображение мультконцерт, небывалое ранее единение музыки и мультипликации. Дисней и знаменитый дирижер Леопольд Стоковски решили воспроизвести на экране фантазии, возникающие в сознании людей при прослушивании музыкальных шедевров.Картина состоит из 8 классических композиций, проиллюстрированных сюжетными инсценировками и ритмичными абстракциями, предвосхищающими чудеса компьютерной графики.

Страна: Walt Disney Production , США
Продолжительность: 02:04:27
Перевод: Профессиональный одноголосый (Кубик в Кубе)
Субтитры: Русские, английские
Дата релиза: 03.01.2014
Файл
Кодек: H.264
Качество: HDRip (AVC)
Видео: MPEG-4 AVC, 2200 Кбит/с, 768x576
Звук: Русский, английский (AC3, 6 ch, 448 Кбит/с)

MediaInfo

Общее
Уникальный идентификатор : 231434823311103221061041006277810129722 (0xAE1CB9C37844174C97AA33AF80630B3A)
Полное имя : E:2Fantazija.1940.x264.HDRip.(AVC).ExKinoRay.mkv
Формат : Matroska
Размер файла : 2,69 Гбайт
Продолжительность : 2 ч. 4 м.
Общий поток : 3098 Кбит/сек
Название фильма : Fantazija.1940.x264.HDRip.(AVC).ExKinoRay
Дата кодирования : UTC 2014-01-03 06:11:46
Программа кодирования : mkvmerge v4.0.0 ('The Stars were mine') сборка от Jun 6 2010 16:18:42
Библиотека кодирования : libebml v1.0.0 + libmatroska v1.0.0
Видео
Идентификатор : 1
Формат : AVC
Формат/Информация : Advanced Video Codec
Профиль формата : [email protected]
Параметр CABAC формата : Да
Параметр ReFrames формата : 8 кадров
Идентификатор кодека : V_MPEG4/ISO/AVC
Продолжительность : 2 ч. 4 м.
Битрейт : 2200 Кбит/сек
Ширина : 768 пикс.
Высота : 576 пикс.
Соотношение сторон : 4:3
Частота кадров : 23,976 кадр/сек
Цветовое пространство : YUV
Подвыборка цветности : 4:2:0
Битовая глубина : 8 бит
Тип развёртки : Прогрессивная
Бит/(Пиксели*Кадры) : 0.207
Размер потока : 1,86 Гбайт (69%)
Заголовок : Rip by Enigma-Vladislav71
Библиотека кодирования : x264 core 125 r2208 d9d2288
Настройки программы : cabac=1 / ref=8 / deblock=1:-2:-2 / analyse=0x3:0x133 / me=umh / subme=11 / psy=1 / psy_rd=1.00:0.00 / mixed_ref=1 / me_range=48 / chroma_me=1 / trellis=2 / 8x8dct=1 / cqm=0 / deadzone=21,11 / fast_pskip=0 / chroma_qp_offset=-2 / threads=3 / lookahead_threads=1 / sliced_threads=0 / nr=0 / decimate=0 / interlaced=0 / bluray_compat=0 / constrained_intra=0 / bframes=8 / b_pyramid=2 / b_adapt=2 / b_bias=0 / direct=3 / weightb=1 / open_gop=0 / weightp=2 / keyint=240 / keyint_min=23 / scenecut=40 / intra_refresh=0 / rc=2pass / mbtree=0 / bitrate=2200 / ratetol=1.0 / qcomp=0.60 / qpmin=10 / qpmax=51 / qpstep=4 / cplxblur=20.0 / qblur=0.5 / ip_ratio=1.40 / pb_ratio=1.30 / aq=1:1.00
Язык : English
Аудио #1
Идентификатор : 2
Формат : AC-3
Формат/Информация : Audio Coding 3
Расширение режима : CM (complete main)
Идентификатор кодека : A_AC3
Продолжительность : 2 ч. 4 м.
Вид битрейта : Постоянный
Битрейт : 448 Кбит/сек
Каналы : 6 каналов
Расположение каналов : Front: L C R, Side: L R, LFE
Частота : 48,0 КГц
Битовая глубина : 16 бит
Метод сжатия : С потерями
Размер потока : 399 Мбайт (14%)
Заголовок : Профессиональный одноголосый (Кубик в Кубе)
Язык : Russian
Аудио #2
Идентификатор : 3
Формат : AC-3
Формат/Информация : Audio Coding 3
Расширение режима : CM (complete main)
Идентификатор кодека : A_AC3
Продолжительность : 2 ч. 4 м.
Вид битрейта : Постоянный
Битрейт : 448 Кбит/сек
Каналы : 6 каналов
Расположение каналов : Front: L C R, Side: L R, LFE
Частота : 48,0 КГц
Битовая глубина : 16 бит
Метод сжатия : С потерями
Размер потока : 399 Мбайт (14%)
Язык : English
Текст #1
Идентификатор : 4
Формат : UTF-8
Идентификатор кодека : S_TEXT/UTF8
Идентификатор кодека/Информация : UTF-8 Plain Text
Язык : Russian
Текст #2
Идентификатор : 5
Формат : UTF-8
Идентификатор кодека : S_TEXT/UTF8
Идентификатор кодека/Информация : UTF-8 Plain Text
Язык : English

Скриншоты

Яндекс.Метрика
Рейтинг@Mail.ru