День независимости: Возрождение / Independence Day: Resurgence (Роланд Эммерих / Roland Emmerich) [2016 г., фантастика, боевик, приключения, WEB-DL] Dub [Чистый звук]

 

Создавать темы 22-Авг-2016 04:54

-День независимости: Возрождение / Independence Day: Resurgence-- Производство: США
Год выпуска: 2016 г.
Жанр: фантастика, боевик, приключения
Продолжительность: 01:58:29Мировая премьера: 20 июня 2016
Российская премьера: 23 июня 2016
Перевод: Профессиональный (полное дублирование) [Чистый звук]
Режиссер: Роланд Эммерих / Roland Emmerich-В ролях: Лиам Хемсворт / Liam Hemsworth (Jake Morrison), Джефф Голдблюм / Jeff Goldblum (David Levinson), Джесси Ашер / Jessie T. Usher (Dylan Hiller), Билл Пуллман / Bill Pullman (President Whitmore), Майка Монро / Maika Monroe (Patricia Whitmore), Села Уорд / Sela Ward (President Lanford), Уильям Фихтнер / William Fichtner (General Adams), Джадд Хёрш / Judd Hirsch (Julius Levinson)-Описание: Используя инопланетные технологии, жители Земли создали специальную программу по защите планеты. Но ничего не может нас спасти от нового, еще более разрушительного и масштабного инопланетного вторжения — только смелость нескольких героев, которые единственные могут спасти наш мир от уничтожения.-
Качество видео: WEB-DL
Контейнер: MKV
Видео кодек: MPEG4 AVC
Аудио кодек: AC3
Видео: 1920x1080 (16:9), 29.970 fps, AVC, 4 465 Kbps
Аудио: AC3, 384 Kbps, 48.0 KHz, 2 ch [Rus]
Cубтитры: отсутствуют

Доп. информация

Бюджет: $165 000 000
Сборы в США: $102 615 906
Сборы в мире: + $278 438 678 = $381 054 584
Сборы в России: $7 041 535
Зрители: Россия 1.68 млн

Media Info

General
Unique ID : 213502147340141128983488421619333510116 (0xA09F04937A5CB515B58552DB9EFAB3E4)
Complete name : Den.NezaViSimosTi.2O16.D.WEBRip.1O8Op.mkv
Format : Matroska
Format version : Version 2
File size : 4.09 GiB
Duration : 1h 58mn
Overall bit rate mode : Constant
Overall bit rate : 4 947 Kbps
Encoded date : UTC 2016-08-19 17:35:47
Writing application : mkvmerge v8.3.0 ('Over the Horizon') 64bit
Writing library : libebml v1.3.1 + libmatroska v1.4.2
DURATION : 01:58:29.302000000
NUMBER_OF_FRAMES : 213066
NUMBER_OF_BYTES : 4053156148
_STATISTICS_WRITING_APP : mkvmerge v8.3.0 ('Over the Horizon') 64bit
_STATISTICS_WRITING_DATE_UTC : 2016-08-19 17:35:47
_STATISTICS_TAGS : BPS DURATION NUMBER_OF_FRAMES NUMBER_OF_BYTESVideo
ID : 1
Format : AVC
Format/Info : Advanced Video Codec
Format profile : [email protected]/* */
Format settings, CABAC : Yes
Format settings, ReFrames : 4 frames
Codec ID : V_MPEG4/ISO/AVC
Duration : 1h 58mn
Bit rate mode : Constant
Bit rate : 4 465 Kbps
Nominal bit rate : 5 000 Kbps
Width : 1 920 pixels
Height : 1 080 pixels
Display aspect ratio : 16:9
Frame rate mode : Constant
Frame rate : 29.970 fps
Standard : Component
Color space : YUV
Chroma subsampling : 4:2:0
Bit depth : 8 bits
Scan type : Progressive
Bits/(Pixel*Frame) : 0.072
Stream size : 3.70 GiB (90%)
Default : Yes
Forced : No
Color primaries : BT.709
Transfer characteristics : BT.709
Matrix coefficients : BT.709Audio
ID : 2
Format : AC-3
Format/Info : Audio Coding 3
Mode extension : CM (complete main)
Format settings, Endianness : Big
Codec ID : A_AC3
Duration : 1h 58mn
Bit rate mode : Constant
Bit rate : 384 Kbps
Channel(s) : 2 channels
Channel positions : Front: L R
Sampling rate : 48.0 KHz
Bit depth : 16 bits
Compression mode : Lossy
Stream size : 325 MiB (8%)
Language : Russian
Default : Yes
Forced : No

Скриншоты

ВНИМАНИЕ, ЕСТЬ РЕКЛАМА!-Трейлер
Яндекс.Метрика
Рейтинг@Mail.ru