(Thrash Metal, Death Metal) Vader - Iron Times - (EP) - 2016 [FLAC, image+.cue, lossless]

 

Создавать темы 22-Авг-2016 04:47

-Vader / Iron Times-- Год издания: 2016
Страна: Olsztyn, Warmian-Masurian, Poland
Жанр: Thrash Metal, Death Metal
Продолжительность: 00:13:44-Лейбл издания: Witching Hour
Тип альбома: EP
Страна-выпуска диска: August 12th, 2016, Europe
Номер по каталогу: EVIL087 CD
Формат: FLAC
Битрейт аудио: lossless
Тип рипа: image+.cue
Наличие сканов в содержимом раздачи: да-

Трэклист

01. Parabellum
02. Prayer To The God Of War
03. Piesc I Stal
04. Overkill
-

Лог создания рипа

Exact Audio Copy V1.0 beta 3 from 29. August 2011EAC extraction logfile from 18. August 2016, 12:45Vader / Iron TimesUsed drive : HL-DT-STDVD-RAM GH15L Adapter: 4 ID: 0Read mode : Secure
Utilize accurate stream : Yes
Defeat audio cache : Yes
Make use of C2 pointers : NoRead offset correction : 667
Overread into Lead-In and Lead-Out : No
Fill up missing offset samples with silence : Yes
Delete leading and trailing silent blocks : No
Null samples used in CRC calculations : Yes
Used interface : Native Win32 interface for Win NT & 2000Used output format : User Defined Encoder
Selected bitrate : 1024 kBit/s
Quality : High
Add ID3 tag : Yes
Command line compressor : C:\Program Files (x86)\Exact Audio Copy\Flac\flac.exe
Additional command line options : -6 -V -T "ARTIST=%artist%" -T "TITLE=%title%" -T "ALBUM=%albumtitle%" -T "DATE=%year%" -T "TRACKNUMBER=%tracknr%" -T "GENRE=%genre%" -T "COMMENT=%comment%" -T "BAND=%albuminterpret%" -T "ALBUMARTIST=%albuminterpret%" -T "COMPOSER=%composer%" %haslyrics%--tag-from-file=LYRICS="%lyricsfile%"%haslyrics% -T "DISCNUMBER=%cdnumber%" -T "TOTALDISCS=%totalcds%" -T "TOTALTRACKS=%numtracks%" %hascover%--picture="%coverfile%"%hascover% %source% -o %dest%TOC of the extracted CD Track | Start | Length | Start sector | End sector
---------------------------------------------------------
1 | 0:00.00 | 2:29.52 | 0 | 11226
2 | 2:29.52 | 2:48.69 | 11227 | 23895
3 | 5:18.46 | 4:07.13 | 23896 | 42433
4 | 9:25.59 | 4:17.70 | 42434 | 61778Range status and errorsSelected range Filename C:\Users\DAREK\Downloads\Desktop\VADER [2016] [MCD] IronTimes\Vader - Iron Times.wav Peak level 100.0 %
Extraction speed 4.4 X
Range quality 99.9 %
Test CRC B7B9F285
Copy CRC B7B9F285
Copy OKNo errors occurredAccurateRip summaryTrack 1 not present in database
Track 2 not present in database
Track 3 not present in database
Track 4 not present in databaseNone of the tracks are present in the AccurateRip databaseEnd of status report
-

Индексная карта (non-compilant .cue)

REM GENRE Thrash/Death Metal
REM DATE 2016
REM COMMENT 2016, Europe, Digipack Limited Edition, EP, DR6
PERFORMER "Vader"
TITLE "Iron Times"
FILE "Vader - Iron Times.flac" WAVE
TRACK 01 AUDIO
TITLE "Parabellum"
INDEX 01 00:00:00
TRACK 02 AUDIO
TITLE "Prayer To The God Of Wars"
INDEX 01 02:29:52
TRACK 03 AUDIO
TITLE "Piкњж I Stal"
INDEX 01 05:18:46
TRACK 04 AUDIO
TITLE "Overkill"
INDEX 01 09:25:59
-

Скриншот спектра частот

-YouTube
Яндекс.Метрика
Рейтинг@Mail.ru