Полный расколбас / Sausage Party (Greg Tiernan \ Conrad Vernon) [2016 г., мультфильм, фэнтези, комедия, приключения, CamRip] MVO

 

Создавать темы 22-Авг-2016 04:32

-Полный расколбас / Sausage Party-- Производство: США
Год выпуска: 2016 г.
Жанр: мультфильм, фэнтези, комедия, приключения
Продолжительность: 01:21:35Мировая премьера: 14 марта 2016
Российская премьера: 8 сентября 2016
Перевод: Любительский (многоголосый, закадровый)
Режиссер: Greg Tiernan \ Conrad Vernon-В ролях: Алистэр Эбелл, Айрис Апатоу, Стефани Бирд, Майкл Сера, Йен Джеймс Корлетт, Майкл Дэйнджерфилд, Брайан Добсон, Майкл Добсон, Джеймс Франко, Билл Хейдер-Описание: Первая анимационная комедия для взрослых о невероятных приключениях еды из супермаркета. Съедобным друзьям предстоит получить ответ на главный вопрос: есть ли жизнь за стенами супермаркета и что же происходит с продуктами после того, как они попадают к людям домой?-
Качество видео: CamRip
Контейнер: AVI
Видео кодек: XviD
Аудио кодек: AC3
Видео: 720x256 (2.81:1), 29.970 fps, XviD build 50 ~2002 kbps avg, 0.36 bit/pixel
Аудио: 48 kHz, AC3 Dolby Digital, 2/0 (L,R) ch, ~384 kbps
Cубтитры: отсутствуют

Доп. информация

Бюджет: $19 000 000
Сборы в США: $55 001 019
Сборы в мире: + $2 732 623 = $57 733 642

Media Info

General
Complete name : D:\!Video\Фильмы\Sausage.Party.2016.MVO.CAMRip.14OOMB.avi
Format : AVI
Format/Info : Audio Video Interleave
File size : 1.37 GiB
Duration : 1 h 21 min
Overall bit rate : 2 399 kb/s
Writing application : VirtualDubMod 1.5.10.2 (build 2540/release)
Writing library : VirtualDubMod build 2540/releaseVideo
ID : 0
Format : MPEG-4 Visual
Format profile : Advanced [email protected]/* */
Format settings, BVOP : 2
Format settings, QPel : No
Format settings, GMC : No warppoints
Format settings, Matrix : Custom
Codec ID : XVID
Codec ID/Hint : XviD
Duration : 1 h 21 min
Bit rate : 2 003 kb/s
Width : 720 pixels
Height : 256 pixels
Display aspect ratio : 2.813
Frame rate : 29.970 (30000/1001) FPS
Color space : YUV
Chroma subsampling : 4:2:0
Bit depth : 8 bits
Scan type : Progressive
Compression mode : Lossy
Bits/(Pixel*Frame) : 0.363
Stream size : 1.14 GiB (84%)
Writing library : XviD 1.2.1 (UTC 2008-12-04)Audio
ID : 1
Format : AC-3
Format/Info : Audio Coding 3
Mode extension : CM (complete main)
Format settings, Endianness : Big
Codec ID : 2000
Duration : 1 h 21 min
Bit rate mode : Constant
Bit rate : 384 kb/s
Channel(s) : 2 channels
Channel positions : Front: L R
Sampling rate : 48.0 kHz
Frame rate : 31.250 FPS (1536 spf)
Compression mode : Lossy
Stream size : 224 MiB (16%)
Alignment : Split accross interleaves
Interleave, duration : 33 ms (1.00 video frame)
Interleave, preload duratio : 500 ms

Скриншоты


Имеется реклама от спонсора показа!
Яндекс.Метрика
Рейтинг@Mail.ru