[ Сегодня на трекере фрилич! Идет свободное скачивание без начисления Download ]

Иллюзия обмана 2 / Now You See Me 2 (2016) BDRip 1080p от ExKinoRay | RUS Transfer | Лицензия

 

Создавать темы 20-Авг-2016 08:33

-Информация о фильме
Название: Иллюзия обмана 2
Оригинальное название: Now You See Me 2
Год выпуска: 2016
Жанр: Триллер, криминал
Выпущено: США, Lionsgate, Summit Entertainment
Режиссер: Джон М. Чу
В ролях: Джесси Айзенберг, Лиззи Каплан, Дэниэл Рэдклифф, Марк Руффало, Морган Фримен, Майкл Кейн, Вуди Харрельсон, Дэйв Франко, Санаа Лэтэн-О фильме: Труппа уличных фигляров и скоромохов из уездного шапито под названием "Четыре всадника" достигла невиданных вершин мастерства в насаждении массового психоза. Демонстрируемые ими фокусы вышли на новый уровень технологического прогресса, оставляя после себя множество бесчувственных, временно не подлежащих идентификации тел, застывших в причудливых позах. Но враги не дремлют и засылают в глубокий тыл "Всадникам" злобного техноманьяка.- -Файл-Качество: BDRip (1080p)
Видео: MPEG-4 AVC, 19450 Кбит/с, 1920x1080, 24 кадр/с
Аудио: Русский (AC3, 6 ch, 640 Кбит/с), (DTS, 6 ch, 1509 Кбит/с), английский (AC3, 6 ch, 384 Кбит/с)
Размер: 19.87 ГБ
Продолжительность: 02:09:30
Перевод: Дублированный
Субтитры: Английские
Озвучивание - Дублированное (Лицензия)
Сохранены оригинальные чаптеры как на Blu-Ray.

x264

x264 [info]: frame I:1492 Avg QP:16.31 size:368836
x264 [info]: frame P:44114 Avg QP:19.27 size:167105
x264 [info]: frame B:140872 Avg QP:21.00 size: 77768
x264 [info]: consecutive B-frames: 3.3% 4.4% 13.8% 15.2% 14.5% 35.2% 6.5% 1.6% 4.7% 0.2% 0.4%
x264 [info]: mb I I16..4: 18.0% 58.0% 24.0%
x264 [info]: mb P I16..4: 1.4% 29.3% 1.8% P16..4: 22.5% 28.3% 9.0% 0.9% 0.1% skip: 6.7%
x264 [info]: mb B I16..4: 0.2% 6.6% 0.1% B16..8: 39.6% 23.4% 4.5% direct: 9.0% skip:16.6% L0:40.7% L1:43.1% BI:16.2%
x264 [info]: 8x8 transform intra:90.3% inter:56.4%
x264 [info]: direct mvs spatial:97.0% temporal:3.0%
x264 [info]: coded y,uvDC,uvAC intra: 93.9% 94.7% 86.5% inter: 45.3% 54.4% 27.4%
x264 [info]: i16 v,h,dc,p: 34% 9% 17% 40%
x264 [info]: i8 v,h,dc,ddl,ddr,vr,hd,vl,hu: 9% 7% 20% 9% 11% 10% 11% 10% 12%
x264 [info]: i4 v,h,dc,ddl,ddr,vr,hd,vl,hu: 10% 7% 7% 10% 15% 14% 14% 11% 13%
x264 [info]: i8c dc,h,v,p: 70% 9% 8% 13%
x264 [info]: Weighted P-Frames: Y:2.9% UV:1.9%
x264 [info]: ref P L0: 46.1% 9.8% 29.5% 12.4% 2.1% 0.1%
x264 [info]: ref B L0: 80.6% 16.2% 3.1%
x264 [info]: ref B L1: 88.4% 11.6%
x264 [info]: kb/s:19436.26

Инфо-файл

Общее
Уникальный идентификатор : 253732362842638843784746699055094414590 (0xBEE31356F97D13C0B6C900CB2625BCFE)
Полное имя : D:ЗагрузкиNow.You.See.Me.II.2016.x264.BDRip.(1080p).ExKinoRay.mkv
Формат : Matroska
Версия формата : Version 2
Размер файла : 19,9 Гбайт
Продолжительность : 2 ч. 9 м.
Общий поток : 22,0 Мбит/сек
Название фильма : Иллюзия обмана II.2016.Rip by: ollan
Дата кодирования : UTC 2016-08-20 02:43:09
Программа кодирования : mkvmerge v5.6.0 ('Kenya Kane') built on May 27 2012 16:44:04
Библиотека кодирования : libebml v1.2.3 + libmatroska v1.3.0
Обложка : Yes
Attachments : Cover - Now.You.See.Me.II.png
Видео
Идентификатор : 1
Формат : AVC
Формат/Информация : Advanced Video Codec
Профиль формата : [email protected]
Параметр CABAC формата : Да
Параметр ReFrames формата : 4 кадра
Идентификатор кодека : V_MPEG4/ISO/AVC
Продолжительность : 2 ч. 9 м.
Битрейт : 19,5 Мбит/сек
Ширина : 1920 пикселей
Высота : 1080 пикселей
Соотношение сторон : 16:9
Режим частоты кадров : Постоянный
Частота кадров : 24,000 кадра/сек
Цветовое пространство : YUV
Субдискретизация насыщенности : 4:2:0
Битовая глубина : 8 бит
Тип развёртки : Прогрессивная
Бит/(Пиксели*Кадры) : 0.391
Размер потока : 17,2 Гбайт (86%)
Библиотека кодирования : x264 core 146 r2538 121396c
Настройки программы : cabac=1 / ref=4 / deblock=1:-3:-3 / analyse=0x3:0x133 / me=umh / subme=11 / psy=1 / psy_rd=1.03:0.09 / mixed_ref=1 / me_range=48 / chroma_me=1 / trellis=2 / 8x8dct=1 / cqm=0 / deadzone=21,11 / fast_pskip=0 / chroma_qp_offset=-3 / threads=12 / lookahead_threads=3 / sliced_threads=0 / nr=0 / decimate=0 / interlaced=0 / bluray_compat=0 / constrained_intra=0 / bframes=10 / b_pyramid=2 / b_adapt=2 / b_bias=0 / direct=3 / weightb=1 / open_gop=0 / weightp=2 / keyint=240 / keyint_min=23 / scenecut=40 / intra_refresh=0 / rc_lookahead=40 / rc=2pass / mbtree=0 / bitrate=19450 / ratetol=1.0 / qcomp=0.60 / qpmin=0 / qpmax=69 / qpstep=4 / cplxblur=20.0 / qblur=0.5 / vbv_maxrate=50000 / vbv_bufsize=62500 / nal_hrd=none / filler=0 / ip_ratio=1.40 / pb_ratio=1.30 / aq=1:1.00
Язык : English
Default : Да
Forced : Нет
Аудио #1
Идентификатор : 2
Формат : AC-3
Формат/Информация : Audio Coding 3
Расширение режима : CM (complete main)
Параметр Endianness формата : Big
Идентификатор кодека : A_AC3
Продолжительность : 2 ч. 9 м.
Вид битрейта : Постоянный
Битрейт : 640 Кбит/сек
Каналы : 6 каналов
Расположение каналов : Front: L C R, Side: L R, LFE
Частота : 48,0 КГц
Частота кадров : 31,250 кадров/сек (1536 spf)
Метод сжатия : С потерями
Размер потока : 593 Мбайт (3%)
Заголовок : Дублированный (Лицензия)
Язык : Russian
Default : Да
Forced : Нет
Аудио #2
Идентификатор : 3
Формат : DTS
Формат/Информация : Digital Theater Systems
Режим : 16
Параметр Endianness формата : Big
Идентификатор кодека : A_DTS
Продолжительность : 2 ч. 9 м.
Вид битрейта : Постоянный
Битрейт : 1509 Кбит/сек
Каналы : 6 каналов
Расположение каналов : Front: L C R, Side: L R, LFE
Частота : 48,0 КГц
Частота кадров : 93,750 кадра/сек (512 spf)
Битовая глубина : 16 бит
Метод сжатия : С потерями
Размер потока : 1,36 Гбайт (7%)
Заголовок : Дублированный (Лицензия)
Язык : Russian
Default : Нет
Forced : Нет
Аудио #3
Идентификатор : 4
Формат : AC-3
Формат/Информация : Audio Coding 3
Расширение режима : CM (complete main)
Параметр Endianness формата : Big
Идентификатор кодека : A_AC3
Продолжительность : 2 ч. 9 м.
Вид битрейта : Постоянный
Битрейт : 384 Кбит/сек
Каналы : 6 каналов
Расположение каналов : Front: L C R, Side: L R, LFE
Частота : 48,0 КГц
Частота кадров : 31,250 кадров/сек (1536 spf)
Метод сжатия : С потерями
Размер потока : 356 Мбайт (2%)
Заголовок : iTunes US
Язык : English
Default : Нет
Forced : Нет
Текст
Идентификатор : 5
Формат : UTF-8
Идентификатор кодека : S_TEXT/UTF8
Идентификатор кодека/Информация : UTF-8 Plain Text
Заголовок : Full
Язык : English
Default : Нет
Forced : Нет
Меню
00:00:00.000 : en:Chapter 01
00:05:00.000 : en:Chapter 02
00:10:00.000 : en:Chapter 03
00:15:00.000 : en:Chapter 04
00:20:00.000 : en:Chapter 05
00:25:00.000 : en:Chapter 06
00:30:00.000 : en:Chapter 07
00:35:00.000 : en:Chapter 08
00:40:00.000 : en:Chapter 09
00:45:00.000 : en:Chapter 10
00:50:00.000 : en:Chapter 11
00:55:00.000 : en:Chapter 12
01:00:00.000 : en:Chapter 13
01:05:00.000 : en:Chapter 14
01:10:00.000 : en:Chapter 15
01:15:00.000 : en:Chapter 16
01:20:00.000 : en:Chapter 17
01:25:00.000 : en:Chapter 18
01:30:00.000 : en:Chapter 19
01:35:00.000 : en:Chapter 20
01:40:00.000 : en:Chapter 21
01:45:00.000 : en:Chapter 22
01:50:00.000 : en:Chapter 23
01:55:00.000 : en:Chapter 24
02:00:00.000 : en:Chapter 25
02:05:00.000 : en:Chapter 26

Скриншоты

Релиз от:
Rip by:
Яндекс.Метрика
Рейтинг@Mail.ru